Достать ножи: Стеклянная луковица

MVO

Добыча

Дубляж

Уэнсдэй

1 сезон

Тор

Дубляж

13 клиническая

1 сезон

Жестокая ночь

MVO

Одни из нас

1 сезон

Deluxe

pack

Рекомендуем

30

Пиратка

ВАЖНО

ВАЖНО

Ghostwire

Пиратка

jed

RePack

nioh2

RePack

RDR2

RePack

NEED FOR SPEED™ PAYBACK

RePack

скачать торрент

Кинопоиск HD

Острые козырьки 6 сезон

6 сезон

FAR CRY 6

RePack

скачать торрент

Лицензия

скачать торрент

MVO

1

1 сезон

скачать торрент

1 сезон

скачать торрент

Лицензия

  

Стражи Галактики: Праздничный спецвыпуск / The Guardians of the Galaxy Holiday Special (Джеймс Ганн) [2022, Фантастика, фэнтези, боевик, комедия, приключения, WEB-DLRip-AVC] MVO [HDRezka]

Стражи Галактики: Праздничный спецвыпуск через торрент pb.wtf

Раздают: 40 [ 0 KB/s ]
Размер: 856 MB | Добавлен: 2 мес. 10 д. назад | Торрент скачан:1335 раз
Смотреть онлайн | Скачать | Поддержите нас   

26-11-2022 22:44 Стражи Галактики: Праздничный спецвыпуск Скачать торрент  

Стражи Галактики: Праздничный спецвыпуск
The Guardians of the Galaxy Holiday Special

Год выпуска: 2022
Страна: США
Студия: Marvel Studios Inc.
Жанр: Фантастика, фэнтези, боевик, комедия, приключения
Продолжительность: 00:41:56
Перевод: Профессиональный (многоголосый) | HDRezka
Субтитры: Русские (Songs/(HDRezka)

Режиссер: Джеймс Ганн

rating

В ролях: Крис Пратт, Пом Клементьефф, Дэйв Батиста, Брэдли Купер, Вин Дизель, Карен Гиллан, Шон Ганн, Кевин Бейкон, Мария Бакалова, Майкл Рукер

Описание: Стражи Галактики отмечают Рождество и отправляются на Землю, чтобы отыскать идеальный подарок для Питера Квилла.

Качество: WEB-DLRip-AVC
Формат: MKV

Видео: MPEG-4 AVC, 1024x576 (16:9), 2405 kbps, 24 fps
Аудио: 48 kHz, AC3 Dolby Digital, 3/2 (L, C, R, l, r) + LFE ch, ~448 Kbps
скриншот  скриншот  скриншот  скриншот  скриншот  скриншот  

Общее
Уникальный идентификатор : 252964208668549507946670651711620055893 (0xBE4F226A387AB1FDF435B931CA870355)
Полное имя : D:The.Guardians.of.the.Galaxy.Holiday.Special.2022.WEB-DLRip.x264.ExKinoRay.mkv
Формат : Matroska
Версия формата : Version 4
Размер файла : 856 Мбайт
Продолжительность : 41 м. 55 с.
Общий поток : 2 854 Кбит/сек
Название фильма : The Guardians of the Galaxy Holiday Special (2022)
Дата кодирования : UTC 2022-11-26 15:36:04
Программа кодирования : mkvmerge v62.0.0 ('Apollo') 64-bit
Библиотека кодирования : libebml v1.4.2 + libmatroska v1.6.4

Видео
Идентификатор : 1
Формат : AVC
Формат/Информация : Advanced Video Codec
Профиль формата : [email protected]
Настройки формата : CABAC / 12 Ref Frames
Параметр CABAC формата : Да
Параметр RefFrames формата : 12 кадров
Идентификатор кодека : V_MPEG4/ISO/AVC
Продолжительность : 41 м. 55 с.
Битрейт : 2 405 Кбит/сек
Ширина : 1 024 пикселя
Высота : 576 пикселей
Соотношение сторон : 16:9
Режим частоты кадров : Постоянный
Частота кадров : 24,000 кадра/сек
Цветовое пространство : YUV
Субдискретизация насыщенности : 4:2:0
Битовая глубина : 8 бит
Тип развёртки : Прогрессивная
Бит/(Пиксели*Кадры) : 0.170
Размер потока : 721 Мбайт (84%)
Заголовок : potroks
Библиотека кодирования : x264 core 163
Настройки программы : cabac=1 / ref=12 / deblock=1:-2:-2 / analyse=0x3:0x133 / me=umh / subme=11 / psy=1 / psy_rd=1.00:0.00 / mixed_ref=1 / me_range=48 / chroma_me=0 / trellis=2 / 8x8dct=1 / cqm=0 / deadzone=21,11 / fast_pskip=0 / chroma_qp_offset=-2 / threads=19 / lookahead_threads=4 / sliced_threads=0 / nr=0 / decimate=1 / interlaced=0 / bluray_compat=0 / constrained_intra=0 / bframes=11 / b_pyramid=2 / b_adapt=2 / b_bias=0 / direct=0 / weightb=1 / open_gop=0 / weightp=2 / keyint=250 / keyint_min=23 / scenecut=40 / intra_refresh=0 / rc_lookahead=100 / rc=2pass / mbtree=0 / bitrate=2405 / ratetol=1.0 / qcomp=0.70 / qpmin=0 / qpmax=69 / qpstep=5 / cplxblur=20.0 / qblur=0.5 / vbv_maxrate=50000 / vbv_bufsize=62500 / nal_hrd=none / filler=0 / ip_ratio=1.40 / pb_ratio=1.30 / aq=1:0.80
Язык : English
Default : Да
Forced : Нет
Цветовой диапазон : Limited
Основные цвета : BT.709
Характеристики трансфера : BT.709
Коэффициенты матрицы : BT.709

Аудио
Идентификатор : 2
Формат : AC-3
Формат/Информация : Audio Coding 3
Коммерческое название : Dolby Digital
Идентификатор кодека : A_AC3
Продолжительность : 41 м. 55 с.
Вид битрейта : Постоянный
Битрейт : 448 Кбит/сек
Каналы : 6 каналов
Channel layout : L R C LFE Ls Rs
Частота : 48,0 КГц
Частота кадров : 31,250 кадров/сек (1536 SPF)
Метод сжатия : С потерями
Размер потока : 134 Мбайт (16%)
Заголовок : MVO | DD 5.1 @ 448 kbps - HDRezka
Язык : Russian
Service kind : Complete Main
Default : Да
Forced : Нет

Текст
Идентификатор : 3
Формат : UTF-8
Идентификатор кодека : S_TEXT/UTF8
Идентификатор кодека/Информация : UTF-8 Plain Text
Продолжительность : 38 м. 42 с.
Битрейт : 26 бит/сек
Count of elements : 127
Размер потока : 7,58 Кбайт (0%)
Заголовок : Songs [HDRezka]
Язык : Russian
Default : Нет
Forced : Да




Скачать Стражи Галактики: Праздничный спецвыпуск через торрент https://i120.fastpic.org/big/2022/1126/3f/136d0d0d15ae88f32fe5b563e426483f.jpg Скачать, смотреть онлайн Стражи Галактики: Праздничный спецвыпуск бесплантно в хорошем качестве Описание: Стражи Галактики отмечают Рождество и отправляются на Землю, чтобы отыскать идеальный подарок для Питера ... 10 10 23
Info! Золотая раздача, скачанное не засчитывается.
Торрент: Зарегистрирован [2022-11-26 22:44] · скачан: 1 335 раз
Статус: √ проверено
Размер: 856 MB
Как cкачать? Как скачать Стражи Галактики: Праздничный спецвыпуск через торрент | UTorrent

% Раздел Тема Автор DL S | L
Фильмы 2022-2023 [DVDrip, WEB-DLRip, HDrip] (DUB, MVO) [ 748 MB ] Стражи Галактики: Праздничный спецвыпуск / The Guardians of the Galaxy Holiday Special | HDRezka Studio | DLRip bober100 Скачать
6 | 0

28-11-2019 20:33  


Отключить вcю реклaмy на сайте, в т.ч. и в плеере онлайн просмотра!

27-11-2022 10:51 Стражи Галактики: Праздничный спецвыпуск Скачать торрент  

Великолепно!!!!!!!!



27-11-2022 14:59 Стражи Галактики: Праздничный спецвыпуск Скачать торрент  

Легко и добро!! Спасибо



    Дорогой пользователь! Огромная просьба, поблагодарите релизера, оцените раздачу и оставьте свои комментарий, если Вы скачали Стражи Галактики: Праздничный спецвыпуск через торрент бесплатно!!
    Комментировать посты могут только пользователи прошедшие не сложную регистрацию
    Показать сообщения:    


    Стражи Галактики: Праздничный спецвыпуск через торрент
    Скачать бесплатно Стражи Галактики: Праздничный спецвыпуск
    Стражи Галактики: Праздничный спецвыпуск скачать торрент
    Стражи Галактики: Праздничный спецвыпуск смотреть онлайн
    Cкачать фильм Стражи Галактики: Праздничный спецвыпуск бесплатно
    Стражи Галактики: Праздничный спецвыпуск скачать торрент в хорошем качестве
    Стражи Галактики: Праздничный спецвыпуск смотреть онлайн бесплатно в хорошем качестве
    Вы можете начинать темы
    Вы можете отвечать на сообщения
    Вы не можете редактировать свои сообщения
    Вы не можете удалять свои сообщения
    Вы не можете голосовать в опросах
    Вы не можете прикреплять файлы к сообщениям
    Вы можете скачивать файлы
    Стражи Галактики: Праздничный спецвыпуск / The Guardians of the Galaxy Holiday Special [2022, Фантастика, фэнтези, боевик, комедия, приключения, WEB-DLRip-AVC] MVO [HDRezka] смотреть онлайн, скачать торрент picoco.icu