Достать ножи: Стеклянная луковица

MVO

Добыча

Дубляж

Уэнсдэй

1 сезон

Тор

Дубляж

13 клиническая

1 сезон

Жестокая ночь

MVO

Одни из нас

1 сезон

Deluxe

pack

Рекомендуем

30

Пиратка

ВАЖНО

ВАЖНО

Ghostwire

Пиратка

jed

RePack

nioh2

RePack

RDR2

RePack

NEED FOR SPEED™ PAYBACK

RePack

скачать торрент

Кинопоиск HD

Острые козырьки 6 сезон

6 сезон

FAR CRY 6

RePack

скачать торрент

Лицензия

скачать торрент

MVO

1

1 сезон

скачать торрент

1 сезон

скачать торрент

Лицензия

  

Андор / Andor / Сезон: 1 / Серии: 1-12 из 12 (Бенджамин Карон, Тоби Хэйнс, Сюзанна Уайт) [2022, Фантастика, боевик, триллер, драма, приключения, WEB-DL 720p] Дубляж [Red Head Sound]

Андор через торрент pb.wtf

Раздают: 5 [ 0 KB/s ] Качают: 2 [ 0 KB/s ]
Размер: 14.2 GB | Добавлен: 2 мес. назад | Торрент скачан:82 раза
Смотреть онлайн | Скачать | Поддержите нас   

27-11-2022 03:44 Андор Скачать торрент  

Андор | Andor
«---»

Год выпуска: 2022
Страна: США
Выпущено: Lucasfilm
Жанр: Фантастика, боевик, триллер, драма, приключения
Продолжительность: ~ 00:40:00
Перевод: Дублированный | Red Head Sound
Субтитры: Русские, английские

Режиссер: Бенджамин Карон, Тоби Хэйнс, Сюзанна Уайт

rating

В ролях: Диего Луна, Женевьев О`Рейли, Алекс Фернс, Уилф Сколдинг, Нуф Макьюэн, Адриа Архона, Клеменс Шик, Энтон Саундерс, Дениз Гоф, Александр Боуман

Описание: Действие происходит за пять лет до событий фильма «Изгой-один» и рассказывает о группе персонажей в период формирования Повстанческого альянса в целях борьбы против Галактической Империи. Один из таких персонажей — Кассиан Андор, вор, который становится революционером и в итоге присоединяется к сопротивлению.

Качество: WEB-DL 720p
Формат: MKV

Видео: 1280x720 at 23.976 fps, MPEG4-AVC, ~3000 kbps avg
Аудио#1: Rus: 48 kHz, AC3, 2/0 (L,R) ch, ~256 kbps avg
Аудио#2: Eng: 48 kHz, E-AC3, 3/2 (L,C,R,l,r) + LFE ch, ~768 kbps avg
скриншот  скриншот  скриншот  скриншот  скриншот  скриншот  

Общее
Уникальный идентификатор : 177266666712324290772250026238771242237 (0x855C5172B0EDCEABB59AA178994CA4FD)
Полное имя : D:Star.Wars.Andor.S01.720p.WEB-DL.RHS\Star.Wars.Andor.S01E01.RHS.mkv
Формат : Matroska
Версия формата : Version 4
Размер файла : 1,10 Гбайт
Продолжительность : 39 м. 10 с.
Режим общего битрейта : Переменный
Общий поток : 4 021 Кбит/сек
Название фильма : Andor (2022) [S01E01] - Release for TeamHD
Дата кодирования : UTC 2022-09-28 01:01:59
Программа кодирования : mkvmerge v9.1.0 ('Little Earthquakes') 32bit
Библиотека кодирования : libebml v1.3.3 + libmatroska v1.4.4

Видео
Идентификатор : 2
Формат : AVC
Формат/Информация : Advanced Video Codec
Профиль формата : [email protected]
Настройки формата : CABAC / 4 Ref Frames
Параметр CABAC формата : Да
Параметр RefFrames формата : 4 кадра
Идентификатор кодека : V_MPEG4/ISO/AVC
Продолжительность : 39 м. 10 с.
Вид битрейта : Переменный
Битрейт : 2 994 Кбит/сек
Максимальный битрейт : 6 375 Кбит/сек
Ширина : 1 280 пикселей
Высота : 720 пикселей
Соотношение сторон : 16:9
Режим частоты кадров : Постоянный
Частота кадров : 24,000 кадра/сек
Цветовое пространство : YUV
Субдискретизация насыщенности : 4:2:0
Битовая глубина : 8 бит
Тип развёртки : Прогрессивная
Бит/(Пиксели*Кадры) : 0.135
Размер потока : 839 Мбайт (74%)
Язык : English
Default : Да
Forced : Нет
Цветовой диапазон : Limited
Основные цвета : BT.709
Характеристики трансфера : BT.709
Коэффициенты матрицы : BT.709

Аудио #1
Идентификатор : 1
Формат : AC-3
Формат/Информация : Audio Coding 3
Коммерческое название : Dolby Digital
Идентификатор кодека : A_AC3
Продолжительность : 39 м. 10 с.
Вид битрейта : Постоянный
Битрейт : 256 Кбит/сек
Каналы : 2 канала
Channel layout : L R
Частота : 48,0 КГц
Частота кадров : 31,250 кадров/сек (1536 SPF)
Метод сжатия : С потерями
Размер потока : 71,7 Мбайт (6%)
Заголовок : Дубляж - Red Head Sound
Язык : Russian
Service kind : Complete Main
Default : Да
Forced : Нет

Аудио #2
Идентификатор : 3
Формат : E-AC-3 JOC
Формат/Информация : Enhanced AC-3 with Joint Object Coding
Коммерческое название : Dolby Digital Plus with Dolby Atmos
Идентификатор кодека : A_EAC3
Продолжительность : 39 м. 10 с.
Вид битрейта : Постоянный
Битрейт : 768 Кбит/сек
Каналы : 6 каналов
Channel layout : L R C LFE Ls Rs
Частота : 48,0 КГц
Частота кадров : 31,250 кадров/сек (1536 SPF)
Метод сжатия : С потерями
Размер потока : 215 Мбайт (19%)
Заголовок : Eng
Язык : English
Service kind : Complete Main
Default : Нет
Forced : Нет
Complexity index : 16
Number of dynamic objects : 15
Bed channel count : 1 канал
Bed channel configuration : LFE

Текст #1
Идентификатор : 4
Формат : UTF-8
Идентификатор кодека : S_TEXT/UTF8
Идентификатор кодека/Информация : UTF-8 Plain Text
Продолжительность : 34 м. 24 с.
Битрейт : 3 бит/сек
Count of elements : 24
Размер потока : 1,00 Кбайт (0%)
Заголовок : Forc
Язык : Russian
Default : Да
Forced : Нет

Текст #2
Идентификатор : 5
Формат : UTF-8
Идентификатор кодека : S_TEXT/UTF8
Идентификатор кодека/Информация : UTF-8 Plain Text
Продолжительность : 35 м. 1 с.
Битрейт : 92 бит/сек
Count of elements : 448
Размер потока : 23,7 Кбайт (0%)
Заголовок : Rus
Язык : Russian
Default : Нет
Forced : Нет

Текст #3
Идентификатор : 6
Формат : UTF-8
Идентификатор кодека : S_TEXT/UTF8
Идентификатор кодека/Информация : UTF-8 Plain Text
Продолжительность : 33 м. 7 с.
Битрейт : 59 бит/сек
Count of elements : 444
Размер потока : 14,5 Кбайт (0%)
Заголовок : Eng
Язык : English
Default : Нет
Forced : Нет

Когда раздача ведётся путём добавления новых серий, при каждом добавлении создётся новый торрент. Чтобы начать докачку новой серии, пользователям необходимо сделать следующее:
(1) остановить скачивание,
(2) удалить старый торрент у себя из клиента (старые серии удалять не надо),
(3) скачать новый торрент и запустить его у себя в клиенте вместо старого, при этом указать клиенту путь в старую папку, куда и должно происходить скачивание новых серий.
Ваш клиент при этом должен произвести хеширование (проверку) старой папки (если не производит сам - помогите ему сделать это), и будет докачивать только те серии, которых у вас ещё нет. Старые серии при этом не удаляются, а продолжают раздаваться!
Eсли вы уже удалили старые серии, то предотвратить повторную закачку старых серий можно, отжав галочку в соответсвующих местах при запуске нового торрента. По возможности, желательно не удалять старые серии как можно дольше, чтобы релизёр не столько продолжал раздавать старые серии, а смог сконцентрироваться на новых.




Скачать Андор через торрент https://i4-imageban-ru.translate.goog/out/2022/09/24/e01a9e16121eea1aa867f036ec176fae.png Скачать, смотреть онлайн Андор бесплантно в хорошем качестве Описание: Действие происходит за пять лет до событий фильма «Изгой-один» и рассказывает о группе персонажей в период формирования ... 10 10 8
Торрент: Зарегистрирован [2022-11-27 03:44] · скачан: 82 раз
Статус: √ проверено
Размер: 14.2 GB
Как cкачать? Как скачать Андор через торрент | UTorrent

% Раздел Тема Автор DL S | L
Зарубежные сериалы [ 6.72 GB ] Андор / Andor / Сезон: 1 / Серии: 1-12 из 12 + Спецвыпуск | HDRezka Studio | DLRip bober100 Скачать
6 | 0
Зарубежные сериалы [ 22.55 GB ] Андор / Andor / Сезон: 1 / Серии: 1-12 из 12 | DUB | 1080p bober100 Скачать
4 | 1
Зарубежные сериалы [ 29.91 GB ] Андор / Andor / Сезон: 1 / Серии: 1-12 из 12 | MVO | 1080p bober100 Скачать
4 | 0
Зарубежные сериалы [ 10.73 GB ] Андор / Andor / Сезон: 1 / Серии: 1-7 из 12 | TVShows | 1080p killermax2013 Скачать
1 | 0
Зарубежные сериалы [ 6.67 GB ] Андор / Andor / Сезон: 1 / Серии: 1-12 из 12 | DUB | DLRip bober100 Скачать
5 | 0
Зарубежные сериалы [ 8.14 GB ] Андор / Andor / Сезон: 1 / Серии: 0-12 из 12 | LostFilm | DLRip bober100 Скачать
7 | 0
Зарубежные сериалы [ 277 MB ] Андор / Andor / Сезон: 1 / Серии: 0- из 12 | HDRezka Studio | 720p bober100 Скачать
1 | 0

28-11-2019 20:33  


Отключить вcю реклaмy на сайте, в т.ч. и в плеере онлайн просмотра!

27-11-2022 19:51 Андор Скачать торрент  

Шикарный сериал! Советую!



    Дорогой пользователь! Огромная просьба, поблагодарите релизера, оцените раздачу и оставьте свои комментарий, если Вы скачали Андор через торрент бесплатно!!
    Комментировать посты могут только пользователи прошедшие не сложную регистрацию
    Показать сообщения:    


    Андор через торрент
    Скачать бесплатно Андор
    Андор скачать торрент
    Андор смотреть онлайн
    Cкачать фильм Андор бесплатно
    Андор скачать торрент в хорошем качестве
    Андор смотреть онлайн бесплатно в хорошем качестве
    Вы не можете начинать темы
    Вы не можете отвечать на сообщения
    Вы не можете редактировать свои сообщения
    Вы не можете удалять свои сообщения
    Вы не можете голосовать в опросах
    Вы не можете прикреплять файлы к сообщениям
    Вы можете скачивать файлы
    Андор / Andor / Сезон: 1 / Серии: 1-12 из 12 [2022, Фантастика, боевик, триллер, драма, приключения, WEB-DL 720p] Дубляж [Red Head Sound] смотреть онлайн, скачать торрент picoco.icu