Достать ножи: Стеклянная луковица

MVO

Добыча

Дубляж

Уэнсдэй

1 сезон

Тор

Дубляж

13 клиническая

1 сезон

Жестокая ночь

MVO

Одни из нас

1 сезон

Deluxe

pack

Рекомендуем

30

Пиратка

ВАЖНО

ВАЖНО

Ghostwire

Пиратка

jed

RePack

nioh2

RePack

RDR2

RePack

NEED FOR SPEED™ PAYBACK

RePack

скачать торрент

Кинопоиск HD

Острые козырьки 6 сезон

6 сезон

FAR CRY 6

RePack

скачать торрент

Лицензия

скачать торрент

MVO

1

1 сезон

скачать торрент

1 сезон

скачать торрент

Лицензия

  

Я иду искать. Королевская игра / Hounded (Томми Боулдинг) [2022, Ужасы, боевик, WEB-DLRip-AVC] Дубляж [Paragraph Media]

Я иду искать. Королевская игра через торрент pb.wtf

Раздают: 3 [ 0 KB/s ]
Размер: 1.71 GB | Добавлен: 2 мес. 10 д. назад | Торрент скачан:159 раз
Смотреть онлайн | Скачать | Поддержите нас   

27-11-2022 14:06 Я иду искать. Королевская игра Скачать торрент  

Я иду искать. Королевская игра
Hounded

Год выпуска: 2022
Страна: Великобритания
Студия: Fiction Films
Жанр: Ужасы, боевик
Продолжительность: 01:34:27
Перевод: Дублированный | Paragraph Media
Субтитры: Русские (Forced, Full), английские

Режиссер: Томми Боулдинг

rating

В ролях: Саманта Бонд, Малачи Пуллар-Латчмен, Джеймс Лэнс, Ханна Трейлин, Ник Моран, Джеймс Фолкнер, Ларри Ламб, Нобусе Джуниор, Росс Коулз, Мэтт Эддис

Описание: Банда молодых хулиганов проникает в якобы пустующее поместье, принадлежащее членам королевской фамилии, в надежде получить самые легкие деньги в своей жизни. Однако хозяева оказываются дома и вовсе не собираются вызывать полицию. Они готовы встретить непрошеных гостей в соответствии со своими многовековыми традициями. И теперь грабителям придется сыграть с ними в королевскую игру, в которой свои особые правила… выживания.

Качество: WEB-DLRip-AVC
Формат: MKV

Видео: MPEG-4 AVC, 1024x458 (2,40:1), 1828 kbps, 23.976 fps
Аудио#1: 48 kHz, AC3, 5.1, 384 kbps | RUS
Аудио#2: 48 kHz, AC3, 5.1, 384 kbps | ENG
скриншот  скриншот  скриншот  скриншот  скриншот  скриншот  

Общее
Уникальный идентификатор : 269218105595131827749493253109715549543 (0xCA898567B4E2D51CB153777ECE67BD67)
Полное имя : D:Hunted.2022.WEB-DLRip.x264.ExKinoRay.mkv
Формат : Matroska
Версия формата : Version 4
Размер файла : 1,71 Гбайт
Продолжительность : 1 ч. 34 м.
Общий поток : 2 598 Кбит/сек
Название фильма : Hunted (2022)
Дата кодирования : UTC 2022-11-27 12:35:57
Программа кодирования : mkvmerge v62.0.0 ('Apollo') 64-bit
Библиотека кодирования : libebml v1.4.2 + libmatroska v1.6.4

Видео
Идентификатор : 1
Формат : AVC
Формат/Информация : Advanced Video Codec
Профиль формата : [email protected]
Настройки формата : CABAC / 12 Ref Frames
Параметр CABAC формата : Да
Параметр RefFrames формата : 12 кадров
Идентификатор кодека : V_MPEG4/ISO/AVC
Продолжительность : 1 ч. 34 м.
Битрейт : 1 828 Кбит/сек
Ширина : 1 024 пикселя
Высота : 458 пикселей
Соотношение сторон : 2,25:1
Режим частоты кадров : Постоянный
Частота кадров : 23,976 (24000/1001) кадра/сек
Цветовое пространство : YUV
Субдискретизация насыщенности : 4:2:0
Битовая глубина : 8 бит
Тип развёртки : Прогрессивная
Бит/(Пиксели*Кадры) : 0.163
Размер потока : 1,21 Гбайт (70%)
Заголовок : potroks
Библиотека кодирования : x264 core 163
Настройки программы : cabac=1 / ref=12 / deblock=1:-2:-2 / analyse=0x3:0x133 / me=umh / subme=11 / psy=1 / psy_rd=1.00:0.05 / mixed_ref=1 / me_range=48 / chroma_me=0 / trellis=2 / 8x8dct=1 / cqm=0 / deadzone=21,11 / fast_pskip=0 / chroma_qp_offset=-3 / threads=19 / lookahead_threads=3 / sliced_threads=0 / nr=0 / decimate=1 / interlaced=0 / bluray_compat=0 / constrained_intra=0 / bframes=10 / b_pyramid=2 / b_adapt=2 / b_bias=0 / direct=0 / weightb=1 / open_gop=0 / weightp=2 / keyint=250 / keyint_min=23 / scenecut=40 / intra_refresh=0 / rc_lookahead=100 / rc=2pass / mbtree=0 / bitrate=1828 / ratetol=1.0 / qcomp=0.70 / qpmin=0 / qpmax=69 / qpstep=5 / cplxblur=20.0 / qblur=0.5 / vbv_maxrate=50000 / vbv_bufsize=62500 / nal_hrd=none / filler=0 / ip_ratio=1.40 / pb_ratio=1.30 / aq=1:0.80
Язык : English
Default : Да
Forced : Нет
Цветовой диапазон : Limited
Основные цвета : BT.709
Характеристики трансфера : BT.709
Коэффициенты матрицы : BT.709

Аудио #1
Идентификатор : 2
Формат : AC-3
Формат/Информация : Audio Coding 3
Коммерческое название : Dolby Digital
Идентификатор кодека : A_AC3
Продолжительность : 1 ч. 34 м.
Вид битрейта : Постоянный
Битрейт : 384 Кбит/сек
Каналы : 6 каналов
Channel layout : L R C LFE Ls Rs
Частота : 48,0 КГц
Частота кадров : 31,250 кадров/сек (1536 SPF)
Битовая глубина : 16 бит
Метод сжатия : С потерями
Размер потока : 259 Мбайт (15%)
Заголовок : Дубляж | DD 5.1 @ 384 kbps - Paragraph Media
Язык : Russian
Service kind : Complete Main
Default : Да
Forced : Нет

Аудио #2
Идентификатор : 3
Формат : AC-3
Формат/Информация : Audio Coding 3
Коммерческое название : Dolby Digital
Идентификатор кодека : A_AC3
Продолжительность : 1 ч. 34 м.
Вид битрейта : Постоянный
Битрейт : 384 Кбит/сек
Каналы : 6 каналов
Channel layout : L R C LFE Ls Rs
Частота : 48,0 КГц
Частота кадров : 31,250 кадров/сек (1536 SPF)
Битовая глубина : 16 бит
Метод сжатия : С потерями
Размер потока : 259 Мбайт (15%)
Заголовок : Original | DD 5.1 @ 384 kbps
Язык : English
Service kind : Complete Main
Default : Нет
Forced : Нет

Текст #1
Идентификатор : 4
Формат : UTF-8
Идентификатор кодека : S_TEXT/UTF8
Идентификатор кодека/Информация : UTF-8 Plain Text
Продолжительность : 1 ч. 24 м.
Битрейт : 2 бит/сек
Count of elements : 28
Размер потока : 1,29 Кбайт (0%)
Заголовок : Forced
Язык : Russian
Default : Нет
Forced : Да

Текст #2
Идентификатор : 5
Формат : UTF-8
Идентификатор кодека : S_TEXT/UTF8
Идентификатор кодека/Информация : UTF-8 Plain Text
Продолжительность : 1 ч. 29 м.
Битрейт : 52 бит/сек
Count of elements : 829
Размер потока : 34,6 Кбайт (0%)
Заголовок : Full
Язык : Russian
Default : Нет
Forced : Нет

Текст #3
Идентификатор : 6
Формат : UTF-8
Идентификатор кодека : S_TEXT/UTF8
Идентификатор кодека/Информация : UTF-8 Plain Text
Продолжительность : 1 ч. 33 м.
Битрейт : 37 бит/сек
Count of elements : 989
Размер потока : 25,9 Кбайт (0%)
Заголовок : Full
Язык : English
Default : Нет
Forced : Нет

Текст #4
Идентификатор : 7
Формат : UTF-8
Идентификатор кодека : S_TEXT/UTF8
Идентификатор кодека/Информация : UTF-8 Plain Text
Продолжительность : 1 ч. 33 м.
Битрейт : 50 бит/сек
Count of elements : 1436
Размер потока : 34,5 Кбайт (0%)
Заголовок : SDH
Язык : English
Default : Нет
Forced : Нет
ENCODING_INFO : SUBRIP > COPY Быстрое

Меню
00:00:00.000 : :Chapter 01
00:08:57.412 : :Chapter 02
00:15:26.676 : :Chapter 03
00:21:23.283 : :Chapter 04
00:28:30.001 : :Chapter 05
00:38:03.700 : :Chapter 06
00:45:31.272 : :Chapter 07
00:54:46.119 : :Chapter 08
01:03:19.632 : :Chapter 09
01:13:13.476 : :Chapter 10
01:21:14.416 : :Chapter 11
01:30:57.040 : :Chapter 12




Скачать Я иду искать. Королевская игра через торрент https://i7-imageban-ru.translate.goog/out/2022/11/27/328a8e34c6a9c1ce32cd691b9dad8f6d.jpg Скачать, смотреть онлайн Я иду искать. Королевская игра бесплантно в хорошем качестве Описание: Банда молодых хулиганов проникает в якобы пустующее поместье, принадлежащее членам королевской фамилии, в надежде получить самые ... 10 10 6
Торрент: Зарегистрирован [2022-11-27 14:06] · скачан: 159 раз
Статус: √ проверено
Размер: 1.71 GB
Как cкачать? Как скачать Я иду искать. Королевская игра через торрент | UTorrent

% Раздел Тема Автор DL S | L
Фильмы 2022-2023 [DVDrip, WEB-DLRip, HDrip] (DUB, MVO) [ 1.46 GB ] Я иду искать. Королевская игра / Hounded | DUB | DLRip bober100 Скачать
3 | 0
Фильмы (WEB-DL 720p, 1080p) [ 4.86 GB ] Я иду искать. Королевская игра / Hounded | DUB | 1080p bober100 Скачать
4 | 0

28-11-2019 20:33  


Отключить вcю реклaмy на сайте, в т.ч. и в плеере онлайн просмотра!

    Дорогой пользователь! Огромная просьба, поблагодарите релизера, оцените раздачу и оставьте свои комментарий, если Вы скачали Я иду искать. Королевская игра через торрент бесплатно!!
    Комментировать посты могут только пользователи прошедшие не сложную регистрацию
    Показать сообщения:    


    Я иду искать. Королевская игра через торрент
    Скачать бесплатно Я иду искать. Королевская игра
    Я иду искать. Королевская игра скачать торрент
    Я иду искать. Королевская игра смотреть онлайн
    Cкачать фильм Я иду искать. Королевская игра бесплатно
    Я иду искать. Королевская игра скачать торрент в хорошем качестве
    Я иду искать. Королевская игра смотреть онлайн бесплатно в хорошем качестве
    Вы можете начинать темы
    Вы можете отвечать на сообщения
    Вы не можете редактировать свои сообщения
    Вы не можете удалять свои сообщения
    Вы не можете голосовать в опросах
    Вы не можете прикреплять файлы к сообщениям
    Вы можете скачивать файлы
    Я иду искать. Королевская игра / Hounded [2022, Ужасы, боевик, WEB-DLRip-AVC] Дубляж [Paragraph Media] смотреть онлайн, скачать торрент picoco.icu