Достать ножи: Стеклянная луковица

MVO

Добыча

Дубляж

Уэнсдэй

1 сезон

Тор

Дубляж

13 клиническая

1 сезон

Жестокая ночь

MVO

Одни из нас

1 сезон

Deluxe

pack

Рекомендуем

30

Пиратка

ВАЖНО

ВАЖНО

Ghostwire

Пиратка

jed

RePack

nioh2

RePack

RDR2

RePack

NEED FOR SPEED™ PAYBACK

RePack

скачать торрент

Кинопоиск HD

Острые козырьки 6 сезон

6 сезон

FAR CRY 6

RePack

скачать торрент

Лицензия

скачать торрент

MVO

1

1 сезон

скачать торрент

1 сезон

скачать торрент

Лицензия

  

Столичная штучка / Серии: 1-4 из 4 (Артур Румынский) [2022, Мелодрама, HDTV 1080i]

Столичная штучка через торрент pb.wtf

Раздают: 2 [ 0 KB/s ]
Размер: 18.43 GB | Добавлен: 2 мес. 10 д. назад | Торрент скачан:40 раз
Смотреть онлайн | Скачать | Поддержите нас   

27-11-2022 14:50 Столичная штучка Скачать торрент  

Столичная штучка

Год выпуска: 2022
Страна: Россия
Жанр: Мелодрама
Продолжительность: ~00:44:00
Субтитры: Нет
Режиссёр: Артур Румынский



В ролях: Аглая Шиловская, Александр Устюгов, Анатолий Лобоцкий, Екатерина Соломатина, Елена Муравьева, Любовь Зайцева, Виктор Супрун, Андрей Финягин, Анастасия Гремяцкая, Наталья Пронина.

Описание: Марина - менеджер в агропромышленной компании, она привыкла к городскому ритму, каблукам и маникюру. Но однажды её отправляют руководить установкой нового доильного аппарата в отдаленный район Тамбовской глубинки. Новая должность переворачивает привычный мир героини: отныне она живет в гостевом доме с баней, а окружают её простые односельчане и самые настоящие коровы. И теперь главная её проблема - убедить местных жителей, что «инновации» в области дойки им очень нужны. А для начала Марине придется расположить к себе мастера на все руки Валеру, который пользуется авторитетом у простых работяг. Героине предстоит не только научиться находить общий язык с ними, но еще пройти путь от «столичной штучки» к себе настоящей.

Реклама: Нет

Сэмпл: http://sendfile.su/1662088

Качество: HDTV 1080i
Формат: AVC
Видео кодек: H.264
Аудио кодек: MP2
Видео: MPEG4 Video (H264), 1920х1080, 25 fps, ~14,0 Мbps, bit/pixel 0.267
Аудио: MP2, 48000Hz, stereo, 192 kbps, 2 ch
Общее
Идентификатор : 1 (0x1)
Полное имя : D:\Stolichnaya shtuchka 2022 HDTV 1080i ( rip by mutabor369 )\Stolichnaya shtuchka..01 seriya.2022.HDTV 1080i.by.mutabor369.ts
Формат : MPEG-TS
Размер файла : 4,63 Гбайт
Продолжительность : 44 м. 52 с.
Режим общего битрейта : Переменный
Общий поток : 14,8 Мбит/сек

Видео
Идентификатор : 211 (0xD3)
Идентификатор меню : 1 (0x1)
Формат : AVC
Формат/Информация : Advanced Video Codec
Профиль формата : [email protected]
Настройки формата : CABAC / 4 Ref Frames
Параметр CABAC формата : Да
Параметр RefFrames формата : 4 кадра
Идентификатор кодека : 27
Продолжительность : 44 м. 53 с.
Битрейт : 13,9 Мбит/сек
Ширина : 1920 пикселей
Высота : 1080 пикселей
Соотношение сторон : 16:9
Частота кадров : 25,000 кадров/сек
Стандарт вещания : Component
Цветовое пространство : YUV
Субдискретизация насыщенности : 4:2:0
Битовая глубина : 8 бит
Тип развёртки : Чересстрочная
Метод сохранения типа развёртки : Раздельные поля
Порядок развёртки : Верхнее поле первое
Бит/(Пиксели*Кадры) : 0.267
Размер потока : 4,34 Гбайт (94%)
Цветовой диапазон : Limited
Основные цвета : BT.709
Характеристики трансфера : BT.709
Коэффициенты матрицы : BT.709

Аудио
Идентификатор : 221 (0xDD)
Идентификатор меню : 1 (0x1)
Формат : MPEG Audio
Версия формата : Version 1
Профиль формата : Layer 2
Идентификатор кодека : 3
Продолжительность : 44 м. 52 с.
Вид битрейта : Постоянный
Битрейт : 192 Кбит/сек
Каналы : 2 канала
Частота : 48,0 КГц
Частота кадров : 41,667 кадра/сек (1152 SPF)
Метод сжатия : С потерями
Размер потока : 61,6 Мбайт (1%)
Язык : Russian



Скачать Столичная штучка через торрент https://i120.fastpic.org/big/2022/1127/0a/77eca90ceeea9ce229ee5d6623e48b0a.jpg Скачать, смотреть онлайн Столичная штучка бесплантно в хорошем качестве Описание: Марина - менеджер в агропромышленной компании, она привыкла к городскому ритму, каблукам и маникюру. Но однажды её отправляют ... 8.7 10 7
Info! Золотая раздача, скачанное не засчитывается.
Торрент: Зарегистрирован [2022-11-27 14:51] · скачан: 40 раз
Статус: √ проверено
Размер: 18.43 GB
Как cкачать? Как скачать Столичная штучка через торрент | UTorrent

28-11-2019 20:33  


Отключить вcю реклaмy на сайте, в т.ч. и в плеере онлайн просмотра!

    Дорогой пользователь! Огромная просьба, поблагодарите релизера, оцените раздачу и оставьте свои комментарий, если Вы скачали Столичная штучка через торрент бесплатно!!
    Комментировать посты могут только пользователи прошедшие не сложную регистрацию
    Показать сообщения:    


    Столичная штучка через торрент
    Скачать бесплатно Столичная штучка
    Столичная штучка скачать торрент
    Столичная штучка смотреть онлайн
    Cкачать фильм Столичная штучка бесплатно
    Столичная штучка скачать торрент в хорошем качестве
    Столичная штучка смотреть онлайн бесплатно в хорошем качестве
    Вы не можете начинать темы
    Вы не можете отвечать на сообщения
    Вы не можете редактировать свои сообщения
    Вы не можете удалять свои сообщения
    Вы не можете голосовать в опросах
    Вы не можете прикреплять файлы к сообщениям
    Вы можете скачивать файлы
    Столичная штучка / Серии: 1-4 из 4 [2022, Мелодрама, HDTV 1080i] смотреть онлайн, скачать торрент picoco.icu