Достать ножи: Стеклянная луковица

MVO

Добыча

Дубляж

Уэнсдэй

1 сезон

Тор

Дубляж

13 клиническая

1 сезон

Жестокая ночь

MVO

Одни из нас

1 сезон

Deluxe

pack

Рекомендуем

30

Пиратка

ВАЖНО

ВАЖНО

Ghostwire

Пиратка

jed

RePack

nioh2

RePack

RDR2

RePack

NEED FOR SPEED™ PAYBACK

RePack

скачать торрент

Кинопоиск HD

Острые козырьки 6 сезон

6 сезон

FAR CRY 6

RePack

скачать торрент

Лицензия

скачать торрент

MVO

1

1 сезон

скачать торрент

1 сезон

скачать торрент

Лицензия

  

Лавстори (Петр Тодоровский) [2022, Комедия, мелодрама, WEB-DL 1080p] [IVI]

Лавстори через торрент pb.wtf

Раздают: 1 [ 0 KB/s ]
Размер: 3.54 GB | Добавлен: 2 мес. 10 д. назад | Торрент скачан:208 раз
Смотреть онлайн | Скачать | Поддержите нас   

27-11-2022 19:25 Лавстори Скачать торрент  

Лавстори
Год выпуска: 2022
Страна: Россия
Студия: Скай Интертеймент
Жанр: Комедия, мелодрама
Продолжительность: 01:30:14
Перевод: Не требуется | IVI
Субтитры: отсутствуют

Режиссер: Петр Тодоровский

rating

В ролях: Александр Петров, Вильма Кутавичюте, Андрей Смирнов, Михаил Тройник, Максим Стоянов, Надя Славецкая, Нериюс Манкус, Юрий Бигулов, Сергей Иванюк, Дмитрий Кравченко

Описание: Он работает водителем и мечтает о карьере актера. Она — своенравная и прагматичная девушка, которая больше не верит в чудеса. Кажется, что у них нет ничего общего. Но это не так. Они — первая любовь друг друга. Молодым людям предстоит путешествие, в котором они проверят, есть ли второй шанс пережить первую любовь.

Качество: WEB-DL 1080p
Формат: MKV

Видео: MPEG-4 AVC, 5120 Кбит/с, 1920x802, 24 fps
Аудио: 48 Кгц, AAC, 6 ch, 512 Кбит/с
скриншот  скриншот  скриншот  скриншот  скриншот  скриншот  

Общее
Уникальный идентификатор: 233704711199211768430981247184608032836 (0xAFD1E3E07F146AE5D2EFC8586861F844)
Полное имя: D:\ТОРРЕНТ\Lavstori.2022.WEB-DL.1080p.MrMittens.mkv
Формат: Matroska
Версия формата: Version 4
Размер файла: 3, 54 Гбайт
Продолжительность: 1 ч. 30 м.
Общий поток: 5 611 Кбит/сек
Название фильма: Lavstori.2022.WEB-DL.1080p.MrMittens
Дата кодирования: UTC 2022-11-24 04:09:23
Программа кодирования: mkvmerge v45.0.0 ('Heaven in Pennies') 32-bit
Библиотека кодирования: libebml v1.3.10 + libmatroska v1.5.2
Attachments: poster.jpg

Видео
Идентификатор: 1
Формат: AVC
Формат/Информация: Advanced Video Codec
Профиль формата: [email protected]
Настройки формата: CABAC / 4 Ref Frames
Параметр CABAC формата: Да
Параметр RefFrames формата: 4 кадра
Параметр GOP формата: M=7, N=48
Идентификатор кодека: V_MPEG4/ISO/AVC
Продолжительность: 1 ч. 30 м.
Битрейт: 5 120 Кбит/сек
Ширина: 1 920 пикселей
Высота: 802 пикселя
Соотношение сторон: 2, 40:1
Режим частоты кадров: Постоянный
Частота кадров: 24, 000 кадра/сек
Цветовое пространство: YUV
Субдискретизация насыщенности: 4:2:0
Битовая глубина: 8 бит
Тип развёртки: Прогрессивная
Бит/(Пиксели*Кадры): 0.139
Размер потока: 3, 21 Гбайт (91%)
Библиотека кодирования: x264 core 152 r2854 e9a5903
Настройки программы: cabac=1 / ref=3 / deblock=1:0:0 / analyse=0x3:0x113 / me=hex / subme=7 / psy=1 / psy_rd=1.00:0.00 / mixed_ref=1 / me_range=16 / chroma_me=1 / trellis=1 / 8x8dct=1 / cqm=0 / deadzone=21, 11 / fast_pskip=1 / chroma_qp_offset=-2 / threads=25 / lookahead_threads=4 / sliced_threads=0 / nr=0 / decimate=1 / interlaced=0 / bluray_compat=0 / constrained_intra=0 / bframes=6 / b_pyramid=2 / b_adapt=1 / b_bias=0 / direct=1 / weightb=1 / open_gop=0 / weightp=2 / keyint=48 / keyint_min=25 / scenecut=0 / intra_refresh=0 / rc_lookahead=40 / rc=2pass / mbtree=1 / bitrate=5120 / ratetol=1.0 / qcomp=0.60 / qpmin=0 / qpmax=69 / qpstep=4 / cplxblur=20.0 / qblur=0.5 / vbv_maxrate=7680 / vbv_bufsize=20480 / nal_hrd=none / filler=0 / ip_ratio=1.40 / aq=1:1.00
Default: Да
Forced: Нет

Аудио
Идентификатор: 2
Формат: AAC LC
Формат/Информация: Advanced Audio Codec Low Complexity
Идентификатор кодека: A_AAC-2
Продолжительность: 1 ч. 30 м.
Битрейт: 512 Кбит/сек
Каналы: 6 каналов
Channel layout: C L R Ls Rs LFE
Частота: 48, 0 КГц
Частота кадров: 46, 875 кадров/сек (1024 SPF)
Метод сжатия: С потерями
Размер потока: 330 Мбайт (9%)
Язык: Russian
Default: Да
Forced: Нет




Скачать Лавстори через торрент https://i120.fastpic.org/big/2022/1124/8f/0291be0790d05cee2497233e9978168f.jpg Скачать, смотреть онлайн Лавстори бесплантно в хорошем качестве Описание: Он работает водителем и мечтает о карьере актера. Она — своенравная и прагматичная девушка, которая больше не верит в чудеса. ... 7 10 6
Торрент: Зарегистрирован [2022-11-27 19:25] · скачан: 208 раз
Статус: T временная
Размер: 3.54 GB
Как cкачать? Как скачать Лавстори через торрент | UTorrent

% Раздел Тема Автор DL S | L
Наши новые фильмы 2020 - 2023 [ 1.46 GB ] Лавстори | IVI | DLRip bober100 Скачать
13 | 0

28-11-2019 20:33  


Отключить вcю реклaмy на сайте, в т.ч. и в плеере онлайн просмотра!

    Дорогой пользователь! Огромная просьба, поблагодарите релизера, оцените раздачу и оставьте свои комментарий, если Вы скачали Лавстори через торрент бесплатно!!
    Комментировать посты могут только пользователи прошедшие не сложную регистрацию
    Показать сообщения:    


    Лавстори через торрент
    Скачать бесплатно Лавстори
    Лавстори скачать торрент
    Лавстори смотреть онлайн
    Cкачать фильм Лавстори бесплатно
    Лавстори скачать торрент в хорошем качестве
    Лавстори смотреть онлайн бесплатно в хорошем качестве
    Вы не можете начинать темы
    Вы не можете отвечать на сообщения
    Вы не можете редактировать свои сообщения
    Вы не можете удалять свои сообщения
    Вы не можете голосовать в опросах
    Вы не можете прикреплять файлы к сообщениям
    Вы можете скачивать файлы
    Лавстори [2022, Комедия, мелодрама, WEB-DL 1080p] [IVI] смотреть онлайн, скачать торрент picoco.icu