Достать ножи: Стеклянная луковица

MVO

Добыча

Дубляж

Уэнсдэй

1 сезон

Тор

Дубляж

13 клиническая

1 сезон

Жестокая ночь

MVO

Одни из нас

1 сезон

Deluxe

pack

Рекомендуем

30

Пиратка

ВАЖНО

ВАЖНО

Ghostwire

Пиратка

jed

RePack

nioh2

RePack

RDR2

RePack

NEED FOR SPEED™ PAYBACK

RePack

скачать торрент

Кинопоиск HD

Острые козырьки 6 сезон

6 сезон

FAR CRY 6

RePack

скачать торрент

Лицензия

скачать торрент

MVO

1

1 сезон

скачать торрент

1 сезон

скачать торрент

Лицензия

  

Дурной глаз / Nocebo (Лоркан Финнеган) [2022, Триллер, WEB-DL 720p] MVO [Jaskier]

Дурной глаз через торрент pb.wtf

Раздают: 1 [ 0 KB/s ]
Размер: 3.59 GB | Добавлен: 2 мес. 9 д. назад | Торрент скачан:143 раза
Смотреть онлайн | Скачать | Поддержите нас   

28-11-2022 08:58 Дурной глаз Скачать торрент  

Дурной глаз
Nocebo

Год выпуска: 2022
Страна: Ирландия, Великобритания, Филиппины, США
Выпущено: Epicmedia Productions, Fís Éireann / Screen Ireland, Lovely Productions
Жанр: Триллер
Продолжительность: 01:37:21
Перевод: Профессиональный (многоголосый) | Jaskier
Субтитры: Английские (Full, SDH)

Режиссер: Лоркан Финнеган

rating

В ролях: Ева Грин, Марк Стронг, Чай Фонасье, Билли Гадсдон, Кэти Бэлтон

Описание: Дизайнер модной одежды готовится к своему главному показу. Но после трагических событий ее беспокоят ужасные видения, мешающие работать и жить. Внезапно в ее доме в самом центре Лондона появляется знахарка. Парой касаний она избавляет Кристин от кошмаров и дрожи в руках. Но эффект временный и требует повторов. Вскоре семья девушки замечает, что, помимо гостьи, в доме поселился кто-то еще.

Качество: WEB-DL 720p
Формат: MKV

Видео: MPEG-4 AVC, 1200x720 (16:9), 4182 kbps, 23.976 fps
Аудио#1: 48 kHz, AC3, 5.1, 448 kbps | RUS
Аудио#2: 48 kHz, E-AC3, 5.1, 640 kbps | ENG
скриншот  скриншот  скриншот  скриншот  скриншот  

Общее
Уникальный идентификатор : 271482261046614121230509420755552870232 (0xCC3D94E335FB3BA0D31102E21B689F58)
Полное имя : D:Nocebo.2022.720p.AMZN.WEB-DL.ExKinoRay.mkv
Формат : Matroska
Версия формата : Version 4
Размер файла : 3,59 Гбайт
Продолжительность : 1 ч. 37 м.
Общий поток : 5 272 Кбит/сек
Название фильма : Nocebo (2022)
Дата кодирования : UTC 2022-11-28 07:14:36
Программа кодирования : mkvmerge v62.0.0 ('Apollo') 64-bit
Библиотека кодирования : libebml v1.4.2 + libmatroska v1.6.4

Видео
Идентификатор : 1
Формат : AVC
Формат/Информация : Advanced Video Codec
Профиль формата : [email protected]
Настройки формата : CABAC / 4 Ref Frames
Параметр CABAC формата : Да
Параметр RefFrames формата : 4 кадра
Идентификатор кодека : V_MPEG4/ISO/AVC
Продолжительность : 1 ч. 37 м.
Вид битрейта : Постоянный
Битрейт : 4 182 Кбит/сек
Номинальный битрейт : 6 000 Кбит/сек
Ширина : 1 200 пикселей
Высота : 720 пикселей
Соотношение сторон : 5:3
Режим частоты кадров : Постоянный
Частота кадров : 23,976 (24000/1001) кадра/сек
Цветовое пространство : YUV
Субдискретизация насыщенности : 4:2:0
Битовая глубина : 8 бит
Тип развёртки : Прогрессивная
Бит/(Пиксели*Кадры) : 0.197
Размер потока : 2,77 Гбайт (77%)
Язык : English
Default : Да
Forced : Нет
Цветовой диапазон : Limited
Основные цвета : BT.709
Характеристики трансфера : BT.709
Коэффициенты матрицы : BT.709

Аудио #1
Идентификатор : 2
Формат : AC-3
Формат/Информация : Audio Coding 3
Коммерческое название : Dolby Digital
Идентификатор кодека : A_AC3
Продолжительность : 1 ч. 37 м.
Вид битрейта : Постоянный
Битрейт : 448 Кбит/сек
Каналы : 6 каналов
Channel layout : L R C LFE Ls Rs
Частота : 48,0 КГц
Частота кадров : 31,250 кадров/сек (1536 SPF)
Метод сжатия : С потерями
Размер потока : 312 Мбайт (8%)
Заголовок : MVO | DD 5.1 @ 448 kbps - Jaskier
Язык : Russian
Service kind : Complete Main
Default : Да
Forced : Нет

Аудио #2
Идентификатор : 3
Формат : E-AC-3
Формат/Информация : Enhanced AC-3
Коммерческое название : Dolby Digital Plus
Идентификатор кодека : A_EAC3
Продолжительность : 1 ч. 37 м.
Вид битрейта : Постоянный
Битрейт : 640 Кбит/сек
Каналы : 6 каналов
Channel layout : L R C LFE Ls Rs
Частота : 48,0 КГц
Частота кадров : 31,250 кадров/сек (1536 SPF)
Метод сжатия : С потерями
Размер потока : 446 Мбайт (12%)
Заголовок : Original | DD+ 5.1 @ 640 kbps
Язык : English
Service kind : Complete Main
Default : Нет
Forced : Нет

Текст #1
Идентификатор : 4
Формат : UTF-8
Идентификатор кодека : S_TEXT/UTF8
Идентификатор кодека/Информация : UTF-8 Plain Text
Заголовок : Full
Язык : English
Default : Нет
Forced : Нет

Текст #2
Идентификатор : 5
Формат : UTF-8
Идентификатор кодека : S_TEXT/UTF8
Идентификатор кодека/Информация : UTF-8 Plain Text
Заголовок : SDH
Язык : English
Default : Нет
Forced : Нет




Скачать Дурной глаз через торрент https://i5-imageban-ru.translate.goog/out/2022/11/28/6df849c26d620df7a4ee85b49c03eb79.jpg Скачать, смотреть онлайн Дурной глаз бесплантно в хорошем качестве Описание: Дизайнер модной одежды готовится к своему главному показу. Но после трагических событий ее беспокоят ужасные видения, мешающие ... 10 10 4
Торрент: Зарегистрирован [2022-11-28 08:58] · скачан: 143 раз
Статус: √ проверено
Размер: 3.59 GB
Как cкачать? Как скачать Дурной глаз через торрент | UTorrent

% Раздел Тема Автор DL S | L
Фильмы (WEB-DL 720p, 1080p) [ 3.64 GB ] Дурной глаз / Nocebo | DUB | 1080p bober100 Скачать
5 | 0
Фильмы (WEB-DL 720p, 1080p) [ 6.72 GB ] Дурной глаз / Nocebo | Jaskier | 1080p bober100 Скачать
1 | 0

28-11-2019 20:33  


Отключить вcю реклaмy на сайте, в т.ч. и в плеере онлайн просмотра!

    Дорогой пользователь! Огромная просьба, поблагодарите релизера, оцените раздачу и оставьте свои комментарий, если Вы скачали Дурной глаз через торрент бесплатно!!
    Комментировать посты могут только пользователи прошедшие не сложную регистрацию
    Показать сообщения:    


    Дурной глаз через торрент
    Скачать бесплатно Дурной глаз
    Дурной глаз скачать торрент
    Дурной глаз смотреть онлайн
    Cкачать фильм Дурной глаз бесплатно
    Дурной глаз скачать торрент в хорошем качестве
    Дурной глаз смотреть онлайн бесплатно в хорошем качестве
    Вы не можете начинать темы
    Вы не можете отвечать на сообщения
    Вы не можете редактировать свои сообщения
    Вы не можете удалять свои сообщения
    Вы не можете голосовать в опросах
    Вы не можете прикреплять файлы к сообщениям
    Вы можете скачивать файлы
    Дурной глаз / Nocebo [2022, Триллер, WEB-DL 720p] MVO [Jaskier] смотреть онлайн, скачать торрент picoco.icu