Достать ножи: Стеклянная луковица

MVO

Добыча

Дубляж

Уэнсдэй

1 сезон

Тор

Дубляж

13 клиническая

1 сезон

Жестокая ночь

MVO

Одни из нас

1 сезон

Deluxe

pack

Рекомендуем

30

Пиратка

ВАЖНО

ВАЖНО

Ghostwire

Пиратка

jed

RePack

nioh2

RePack

RDR2

RePack

NEED FOR SPEED™ PAYBACK

RePack

скачать торрент

Кинопоиск HD

Острые козырьки 6 сезон

6 сезон

FAR CRY 6

RePack

скачать торрент

Лицензия

скачать торрент

MVO

1

1 сезон

скачать торрент

1 сезон

скачать торрент

Лицензия

  

Велга (Анастасия Нечаева) [2022, Мелодрама, WEBRip 1080p]

Велга через торрент pb.wtf

Раздают: 4 [ 75 KB/s ]
Размер: 2.71 GB | Добавлен: 2 мес. 9 д. назад | Торрент скачан:138 раз
Смотреть онлайн | Скачать | Поддержите нас   

28-11-2022 11:01 Велга Скачать торрент  

Велга
Год выпуска: 2022
Страна: Россия
Производство: ООО «Студия «Автор»
Жанр: Мелодрама
Продолжительность: 01:23:41
Перевод: Не требуется
Субтитры: отсутствуют

Режиссер: Анастасия Нечаева



В ролях: Ольга Бодрова, Антон Федосеев, Алексей Гуськов, Сергей Шакуров, Александра Тулинова, Евгения Манджиева, Александр Кононец, Владислав Тирон, Андрей Филиппак, Надежда Ларина

Описание: По мотивам одноименного рассказа И.А. Бунина. История разворачивается где-то на берегу Северного моря. Велга и Кирилл выросли вместе, знают друг друга с детства. Но их чувство влюбленности созрело и полноценно раскрылось не так давно. Кажется, ничто не способно омрачить их беззаботного, счастливого существования, пока на годовщину смерти матери из города не приезжает старшая сестра Велги - Снега.

Качество: WEBRip 1080p
Формат: MKV

Видео: MPEG-4 AVC, 1920x816, ~ 4500 Kбит/с, 0.118 bit/pixel, 24 Кадр/с, 8 бит
Аудио: 44,1 kHz, AAC, 2.0 (L R) ch, ~ 192 Кбит/с
скриншот  скриншот  скриншот  скриншот  

Общее
Уникальный идентификатор : 167905561680206507164288818186836252525 (0x7E516F560F1D63A650BCC9B387FC176D)
Полное имя : D:\Velga.2022.WEBRip.1080p.mkv
Формат : Matroska
Версия формата : Version 4
Размер файла : 2,71 Гбайт
Продолжительность : 1 ч. 23 м.
Режим общего битрейта : Переменный
Общий поток : 4 638 Кбит/сек
Название фильма : Velga.2022.WEBRip.1080p
Дата кодирования : UTC 2022-11-28 08:39:09
Программа кодирования : mkvmerge v68.0.0 ('The Curtain') 64-bit
Библиотека кодирования : libebml v1.4.2 + libmatroska v1.6.4
Attachments : poster.jpg

Видео
Идентификатор : 1
Формат : AVC
Формат/Информация : Advanced Video Codec
Профиль формата : [email protected]
Настройки формата : CABAC / 2 Ref Frames
Параметр CABAC формата : Да
Параметр RefFrames формата : 2 кадра
Идентификатор кодека : V_MPEG4/ISO/AVC
Продолжительность : 1 ч. 23 м.
Вид битрейта : Переменный
Битрейт : 4 443 Кбит/сек
Максимальный битрейт : 4 500 Кбит/сек
Ширина : 1 920 пикселей
Высота : 816 пикселей
Соотношение сторон : 2,40:1
Режим частоты кадров : Постоянный
Частота кадров : 24,000 кадра/сек
Цветовое пространство : YUV
Субдискретизация насыщенности : 4:2:0
Битовая глубина : 8 бит
Тип развёртки : Прогрессивная
Бит/(Пиксели*Кадры) : 0.118
Размер потока : 2,60 Гбайт (96%)
Default : Да
Forced : Нет
Цветовой диапазон : Limited
Основные цвета : BT.709
Характеристики трансфера : BT.709
Коэффициенты матрицы : BT.709

Аудио
Идентификатор : 2
Формат : AAC LC
Формат/Информация : Advanced Audio Codec Low Complexity
Идентификатор кодека : A_AAC-2
Продолжительность : 1 ч. 23 м.
Битрейт : 192 Кбит/сек
Каналы : 2 канала
Channel layout : L R
Частота : 44,1 КГц
Частота кадров : 43,066 кадра/сек (1024 SPF)
Метод сжатия : С потерями
Размер потока : 115 Мбайт (4%)
Заголовок : [Original | AAC Audio]
Язык : Russian
Default : Да
Forced : Нет




Скачать Велга через торрент https://i120.fastpic.org/big/2022/1128/a0/3bc0bb4fd5fcb880985d463be4a912a0.jpg Скачать, смотреть онлайн Велга бесплантно в хорошем качестве Описание: По мотивам одноименного рассказа И.А. Бунина. История разворачивается где-то на берегу Северного моря. Велга и Кирилл выросли ... 6.9 10 9
Торрент: Зарегистрирован [2022-11-28 11:01] · скачан: 138 раз
Статус: T временная
Размер: 2.71 GB
Как cкачать? Как скачать Велга через торрент | UTorrent

28-11-2019 20:33  


Отключить вcю реклaмy на сайте, в т.ч. и в плеере онлайн просмотра!

    Дорогой пользователь! Огромная просьба, поблагодарите релизера, оцените раздачу и оставьте свои комментарий, если Вы скачали Велга через торрент бесплатно!!
    Комментировать посты могут только пользователи прошедшие не сложную регистрацию
    Показать сообщения:    


    Велга через торрент
    Скачать бесплатно Велга
    Велга скачать торрент
    Велга смотреть онлайн
    Cкачать фильм Велга бесплатно
    Велга скачать торрент в хорошем качестве
    Велга смотреть онлайн бесплатно в хорошем качестве
    Вы не можете начинать темы
    Вы не можете отвечать на сообщения
    Вы не можете редактировать свои сообщения
    Вы не можете удалять свои сообщения
    Вы не можете голосовать в опросах
    Вы не можете прикреплять файлы к сообщениям
    Вы можете скачивать файлы
    Велга [2022, Мелодрама, WEBRip 1080p] смотреть онлайн, скачать торрент picoco.icu