Достать ножи: Стеклянная луковица

MVO

Добыча

Дубляж

Уэнсдэй

1 сезон

Тор

Дубляж

13 клиническая

1 сезон

Жестокая ночь

MVO

Одни из нас

1 сезон

Deluxe

pack

Рекомендуем

30

Пиратка

ВАЖНО

ВАЖНО

Ghostwire

Пиратка

jed

RePack

nioh2

RePack

RDR2

RePack

NEED FOR SPEED™ PAYBACK

RePack

скачать торрент

Кинопоиск HD

Острые козырьки 6 сезон

6 сезон

FAR CRY 6

RePack

скачать торрент

Лицензия

скачать торрент

MVO

1

1 сезон

скачать торрент

1 сезон

скачать торрент

Лицензия

  

Inganni sessuali / Heart Breaker 1 / Сексуальный обман (?) [2011 г., Feature, Anal, Threesome, DVD9]

Inganni sessuali через торрент pb.wtf

Качают: 1 [ 0 KB/s ]
Размер: 7.51 GB | Добавлен: 2 мес. 9 д. назад | Торрент скачан:70 раз
| Скачать | Поддержите нас   

28-11-2022 12:39 Inganni sessuali Скачать торрент  

Inganni sessuali / Heart Breaker 1 / Сексуальный обман
Год выпуска: 2011
Страна: Италия
Жанр: Feature, Anal, Threesome
Продолжительность: 02:20:21

Режиссер: ?

В ролях: Anita Deluxe, Jessica Moore, Lolita Angel, Lucy Bell, Mandy Bright, Horst Baron, J.J., Mike Foster

Описание: Monica e sua figlia Jenny sono due donne affascinanti e intraprendenti. Con i loro corpi formosi e la loro morale lasciva seducono gli uomini più ricchi facendoli cadere nel vortice del piacere e del vizio con l'unico scopo di arricchirsi e di godersi momenti di sesso perverso...

Качество: DVD9
Формат: DVD Video
Видео кодек: MPEG2
Аудио кодек: AC3
Видео: 720x576, MPEG 2, 6800 Кбит/сек
Аудио: Итальянский, AC3, 2 ch, 192 Кбит/сек
Видео
Идентификатор : 224 (0xE0)
Формат : MPEG Video
Версия формата : Version 2
Профиль формата : [email protected]
Настройки формата : BVOP
Параметр BVOP формата : Да
Параметр матрицы формата : По умолчанию
Параметр GOP формата : M=3, N=12
Структура изображения : Frame
Продолжительность : 20 м. 6 с.
Вид битрейта : Переменный
Битрейт : 6783 Кбит/сек
Максимальный битрейт : 7000 Кбит/сек
Ширина : 720 пикселей
Высота : 576 пикселей
Соотношение сторон : 16:9
Частота кадров : 25,000 кадров/сек
Стандарт вещания : PAL
Цветовое пространство : YUV
Субдискретизация насыщенности : 4:2:0
Битовая глубина : 8 бит
Тип развёртки : Чересстрочная
Порядок развёртки : Верхнее поле первое
Метод сжатия : С потерями
Бит/(Пиксели*Кадры) : 0.654
Временной код первого кадра : 00:00:00:00
Оригинал временного кода : Group of pictures header
GOP, открыто/закрыто : Закрыто
Размер потока : 976 Мбайт (95%)

Аудио
Идентификатор : 189 (0xBD)-128 (0x80)
Формат : AC-3
Формат/Информация : Audio Coding 3
Коммерческое название : Dolby Digital
Режим смешивания : DVD-Video
Продолжительность : 20 м. 6 с.
Вид битрейта : Постоянный
Битрейт : 192 Кбит/сек
Каналы : 2 канала
ChannelLayout : L R
Частота : 48,0 КГц
Частота кадров : 31,250 кадров/сек (1536 SPF)
Метод сжатия : С потерями
Размер потока : 27,6 Мбайт (3%)
ServiceKind/String : Complete Main




pack Скачать Inganni sessuali через торрент https://i120.fastpic.org/big/2022/1128/f6/4a8eb038d0c31bc3c19cdc3547cf87f6.jpg Скачать, смотреть онлайн Inganni sessuali бесплантно в хорошем качестве Описание: Monica e sua figlia Jenny sono due donne affascinanti e intraprendenti. Con i loro corpi formosi e la loro morale lasciva ... 9.7 10 6
Info! Золотая раздача, скачанное не засчитывается.
Торрент: Зарегистрирован [2022-11-28 12:39] · скачан: 70 раз
Статус: √ проверено
Размер: 7.51 GB
Как cкачать? Как скачать Inganni sessuali через торрент | UTorrent

28-11-2019 20:33  


Отключить вcю реклaмy на сайте, в т.ч. и в плеере онлайн просмотра!


    Дорогой пользователь! Огромная просьба, поблагодарите релизера, оцените раздачу и оставьте свои комментарий, если Вы скачали Inganni sessuali через торрент бесплатно!!
    Комментировать посты могут только пользователи прошедшие не сложную регистрацию
    Показать сообщения:    


    Inganni sessuali через торрент
    Скачать бесплатно Inganni sessuali
    Inganni sessuali скачать торрент
    Inganni sessuali смотреть онлайн
    Cкачать фильм Inganni sessuali бесплатно
    Inganni sessuali скачать торрент в хорошем качестве
    Inganni sessuali смотреть онлайн бесплатно в хорошем качестве
    Вы не можете начинать темы
    Вы не можете отвечать на сообщения
    Вы не можете редактировать свои сообщения
    Вы не можете удалять свои сообщения
    Вы не можете голосовать в опросах
    Вы не можете прикреплять файлы к сообщениям
    Вы можете скачивать файлы
    Inganni sessuali / Heart Breaker 1 / Сексуальный обман [2011 г., Feature, Anal, Threesome, DVD9] смотреть онлайн, скачать торрент picoco.icu