Достать ножи: Стеклянная луковица

MVO

Добыча

Дубляж

Уэнсдэй

1 сезон

Тор

Дубляж

13 клиническая

1 сезон

Жестокая ночь

MVO

Одни из нас

1 сезон

Deluxe

pack

Рекомендуем

30

Пиратка

ВАЖНО

ВАЖНО

Ghostwire

Пиратка

jed

RePack

nioh2

RePack

RDR2

RePack

NEED FOR SPEED™ PAYBACK

RePack

скачать торрент

Кинопоиск HD

Острые козырьки 6 сезон

6 сезон

FAR CRY 6

RePack

скачать торрент

Лицензия

скачать торрент

MVO

1

1 сезон

скачать торрент

1 сезон

скачать торрент

Лицензия

  

Американский жиголо / American Gigolo / Сезон: 1 / Серии: 1-8 из 8 (Дэвид Холландер, Дэмиэн Маркано, Грегг Араки) [2022, Триллер, драма, мелодрама, криминал, детектив, WEB-DL 720p] MVO [Jaskier]

Американский жиголо через торрент pb.wtf

Раздают: 1 [ 0 KB/s ]
Размер: 15.04 GB | Добавлен: 2 мес. 6 д. назад | Торрент скачан:34 раза
Смотреть онлайн | Скачать | Поддержите нас   

28-11-2022 12:39 Американский жиголо Скачать торрент  

Американский жиголо
American Gigolo

Год выпуска: 2022
Страна: США
Выпущено: Paramount Television, Jerry Bruckheimer Television, Showtime Networks, Three Rivers Entertainment
Жанр: Триллер, драма, мелодрама, криминал, детектив
Продолжительность: ~ 01:00:00 серия
Перевод: Профессиональный (многоголосый) | Jaskier
Субтитры: Английские (Full, SDH)

Режиссер: Дэвид Холландер, Дэмиэн Маркано, Грегг Араки

rating
В ролях: Джон Бернтал, Гретхен Мол, Лиззи Брошере, Гэбриел ЛаБелль, Лиленд Орсер, Рози О’Доннелл, Алекс Фернандес, Марк Махони, Уэйн Брэди, Йолонда Росс

Описание: Жиголо Джулиан Кей является одним из самых востребованных в своей профессии. Однажды его клиентку находят мёртвой и герой моментально попадает под подозрение. Спустя 15 лет после ареста он выходит из тюрьмы. Джулиан изо всех сил пытается найти своё место в современном Лос-Анджелесе и расследовать убийство, за которое он был осуждён, а также надеется восстановить связь со своей единственной настоящей любовь, Мишель.

Качество: WEB-DL 720p
Формат: MKV

Видео: MPEG-4 AVC, ~ 4300 kbps, 1280х720, 23.976 fps
Аудио#1 Rus: AC-3, 48 kHz, 6 ch, 384 kbps | Jaskier|
Аудио#2 Eng: E-AC-3, 48 kHz, 6 ch, 640 kbps | Original|
скриншот  скриншот  скриншот  скриншот  

General
Unique ID : 237860875211694163161360495933415550730 (0xB2F2569560E87446926FCE93A9F8EF0A)
Complete name : K:American Gigolo.s01.WEB.720p.Jaskier\American.Gigolo.S01E01.WEB-DL.720p.AMZN-NTb.mkv
Format : Matroska
Format version : Version 4 / Version 2
File size : 2.18 GiB
Duration : 1 h 0 min
Overall bit rate : 5 153 kb/s
Encoded date : UTC 2022-10-22 17:01:10
Writing application : mkvmerge v8.0.0 ('Til The Day That I Die') 64bit
Writing library : libebml v1.3.1 + libmatroska v1.4.2

Video
ID : 1
Format : AVC
Format/Info : Advanced Video Codec
Format profile : [email protected]
Format settings, CABAC : Yes
Format settings, RefFrames : 4 frames
Codec ID : V_MPEG4/ISO/AVC
Duration : 1 h 0 min
Bit rate mode : Constant
Bit rate : 4 127 kb/s
Nominal bit rate : 6 000 kb/s
Width : 1 280 pixels
Height : 720 pixels
Display aspect ratio : 16:9
Frame rate mode : Constant
Frame rate : 23.976 (24000/1001) FPS
Color space : YUV
Chroma subsampling : 4:2:0
Bit depth : 8 bits
Scan type : Progressive
Bits/(Pixel*Frame) : 0.187
Stream size : 1.75 GiB (80%)
Language : English
Default : Yes
Forced : No
Color range : Limited
Color primaries : BT.709
Transfer characteristics : BT.709
Matrix coefficients : BT.709

Audio #1
ID : 2
Format : AC-3
Format/Info : Audio Coding 3
Format settings, Endianness : Big
Codec ID : A_AC3
Duration : 1 h 0 min
Bit rate mode : Constant
Bit rate : 384 kb/s
Channel(s) : 6 channels
Channel positions : Front: L C R, Side: L R, LFE
Sampling rate : 48.0 kHz
Frame rate : 31.250 FPS (1536 SPF)
Bit depth : 16 bits
Compression mode : Lossy
Stream size : 167 MiB (7%)
Title : JASKIER
Language : Russian
Service kind : Complete Main
Default : Yes
Forced : No

Audio #2
ID : 3
Format : E-AC-3
Format/Info : Enhanced Audio Coding 3
Format settings, Endianness : Big
Codec ID : A_EAC3
Duration : 1 h 0 min
Bit rate mode : Constant
Bit rate : 640 kb/s
Channel(s) : 6 channels
Channel positions : Front: L C R, Side: L R, LFE
Sampling rate : 48.0 kHz
Frame rate : 187.500 FPS (256 SPF)
Compression mode : Lossy
Delay relative to video : 18 ms
Stream size : 278 MiB (12%)
Title : Original
Language : English
Service kind : Complete Main
Default : No
Forced : No

Text #1
ID : 4
Format : UTF-8
Codec ID : S_TEXT/UTF8
Codec ID/Info : UTF-8 Plain Text
Duration : 58 min 56 s
Bit rate : 60 b/s
Count of elements : 814
Stream size : 26.2 KiB (0%)
Title : Full
Language : English
Default : No
Forced : No

Text #2
ID : 5
Format : UTF-8
Codec ID : S_TEXT/UTF8
Codec ID/Info : UTF-8 Plain Text
Duration : 59 min 17 s
Bit rate : 68 b/s
Count of elements : 900
Stream size : 29.9 KiB (0%)
Title : SDH
Language : English
Default : No
Forced : No

Когда раздача ведётся путём добавления новых серий, при каждом добавлении создётся новый торрент. Чтобы начать докачку новой серии, пользователям необходимо сделать следующее:
(1) остановить скачивание,
(2) удалить старый торрент у себя из клиента (старые серии удалять не надо),
(3) скачать новый торрент и запустить его у себя в клиенте вместо старого, при этом указать клиенту путь в старую папку, куда и должно происходить скачивание новых серий.
Ваш клиент при этом должен произвести хеширование (проверку) старой папки (если не производит сам - помогите ему сделать это), и будет докачивать только те серии, которых у вас ещё нет. Старые серии при этом не удаляются, а продолжают раздаваться!
Eсли вы уже удалили старые серии, то предотвратить повторную закачку старых серий можно, отжав галочку в соответсвующих местах при запуске нового торрента. По возможности, желательно не удалять старые серии как можно дольше, чтобы релизёр не столько продолжал раздавать старые серии, а смог сконцентрироваться на новых.




Скачать Американский жиголо через торрент https://i120.fastpic.org/big/2022/0912/58/a6f1a83c75ad7f94073a30db80de0a58.jpeg Скачать, смотреть онлайн Американский жиголо бесплантно в хорошем качестве Описание: Жиголо Джулиан Кей является одним из самых востребованных в своей профессии. Однажды его клиентку находят мёртвой и герой ... 10 10 2
Торрент: Зарегистрирован [2022-11-28 12:39] · скачан: 34 раз
Статус: √ проверено
Размер: 15.04 GB
Как cкачать? Как скачать Американский жиголо через торрент | UTorrent

% Раздел Тема Автор DL S | L
Зарубежные сериалы [ 28.36 GB ] Американский жиголо / American Gigolo / Сезон: 1 / Серии: 1-8 из 8 | Jaskier | 1080p bober100 Скачать
2 | 1

28-11-2019 20:33  


Отключить вcю реклaмy на сайте, в т.ч. и в плеере онлайн просмотра!

    Дорогой пользователь! Огромная просьба, поблагодарите релизера, оцените раздачу и оставьте свои комментарий, если Вы скачали Американский жиголо через торрент бесплатно!!
    Комментировать посты могут только пользователи прошедшие не сложную регистрацию
    Показать сообщения:    


    Американский жиголо через торрент
    Скачать бесплатно Американский жиголо
    Американский жиголо скачать торрент
    Американский жиголо смотреть онлайн
    Cкачать фильм Американский жиголо бесплатно
    Американский жиголо скачать торрент в хорошем качестве
    Американский жиголо смотреть онлайн бесплатно в хорошем качестве
    Вы не можете начинать темы
    Вы не можете отвечать на сообщения
    Вы не можете редактировать свои сообщения
    Вы не можете удалять свои сообщения
    Вы не можете голосовать в опросах
    Вы не можете прикреплять файлы к сообщениям
    Вы можете скачивать файлы
    Американский жиголо / American Gigolo / Сезон: 1 / Серии: 1-8 из 8 [2022, Триллер, драма, мелодрама, криминал, детектив, WEB-DL 720p] MVO [Jaskier] смотреть онлайн, скачать торрент picoco.icu