Достать ножи: Стеклянная луковица

MVO

Добыча

Дубляж

Уэнсдэй

1 сезон

Тор

Дубляж

13 клиническая

1 сезон

Жестокая ночь

MVO

Одни из нас

1 сезон

Deluxe

pack

Рекомендуем

30

Пиратка

ВАЖНО

ВАЖНО

Ghostwire

Пиратка

jed

RePack

nioh2

RePack

RDR2

RePack

NEED FOR SPEED™ PAYBACK

RePack

скачать торрент

Кинопоиск HD

Острые козырьки 6 сезон

6 сезон

FAR CRY 6

RePack

скачать торрент

Лицензия

скачать торрент

MVO

1

1 сезон

скачать торрент

1 сезон

скачать торрент

Лицензия

  

Гости из прошлого / Сезон: 2 / Серии: 1-15 из 15 (Мария Кравченко (II) [2022, Комедия, WEB-DL 1080p]

Гости из прошлого через торрент pb.wtf

Раздают: 13 [ 279 KB/s ] Качают: 1 [ 0 KB/s ]
Размер: 9.81 GB | Добавлен: 1 мес. 25 д. назад | Торрент скачан:149 раз
Смотреть онлайн | Скачать | Поддержите нас   

28-11-2022 12:56 Гости из прошлого Скачать торрент  

Гости из прошлого
Год выпуска: 2022
Страна: Россия
Выпущено: Кинокомпания «Небо» по заказу телеканала СТС
Жанр: Комедия
Продолжительность: ~ 00:20:00 серия
Субтитры: отсутствуют

Режиссер: Мария Кравченко (II)



В ролях: Юрий Стоянов, Алексей Макаров, Михаил Трухин, Анна Невская, Евгений Михеев, Анастасия Акатова, Евгений Егоров, Вероника Сафонова, Сергей Дьяков, Зарина Мухитдинова, Илья Феофилактов, Денис Нурулин, Мариэтта Цигаль-Полищук

Описание: Советский изобретатель Матвей Пиотровский вместе с фарцовщиком Жориком, двумя версиями внука из разных времён и семьёй Даниловых из 2020-го хочет выбраться из пространственно-временной дыры. Тщетные попытки вернуться домой приводят путешественников то к Александру Пушкину и будущему императору, цесаревичу Александру Николаевичу, то во времена языческой Руси, то в параллельные реальности. Герои должны разгадать тайну временной аномалии и сделать непростой выбор, который определит судьбу их мира.

Качество: WEB-DL 1080p
Формат: MKV

Видео: MPEG-4 AVC, 1920x1080, ~ 3800 Кбит/с, 0.073 bit/pixel, 25 Кадр/с
Аудио: 48.0 kHz, AC3 Dolby Digital, 2/0 (L,R) ch, ~ 192 kbps
скриншот  скриншот  скриншот  скриншот  скриншот  скриншот  

Общее
Уникальный идентификатор : 76340072173182449727812962725708617302 (0x396E902706DB66BFFC383F89C31AD656)
Полное имя : D:\Gosti.iz.proshlogo.S02.2022.WEB-DL.1080p\Gosti.iz.proshlogo.S02.E01.2022.WEB-DL.1080p.mkv
Формат : Matroska
Версия формата : Version 4
Размер файла : 545 Мбайт
Продолжительность : 19 м. 13 с.
Общий поток : 3 963 Кбит/сек
Название фильма : Gosti.iz.proshlogo.S02.E01.2022.WEB-DL.1080p
Дата кодирования : UTC 2022-11-21 16:30:48
Программа кодирования : mkvmerge v68.0.0 ('The Curtain') 64-bit
Библиотека кодирования : libebml v1.4.2 + libmatroska v1.6.4
Attachments : poster.jpg

Видео
Идентификатор : 1
Формат : AVC
Формат/Информация : Advanced Video Codec
Профиль формата : [email protected]
Настройки формата : CABAC / 4 Ref Frames
Параметр CABAC формата : Да
Параметр RefFrames формата : 4 кадра
Параметр GOP формата : M=4, N=50
Идентификатор кодека : V_MPEG4/ISO/AVC
Продолжительность : 19 м. 13 с.
Битрейт : 3 767 Кбит/сек
Ширина : 1 920 пикселей
Высота : 1 080 пикселей
Соотношение сторон : 16:9
Режим частоты кадров : Постоянный
Частота кадров : 25,000 кадров/сек
Стандарт вещания : PAL
Цветовое пространство : YUV
Субдискретизация насыщенности : 4:2:0
Битовая глубина : 8 бит
Тип развёртки : Прогрессивная
Бит/(Пиксели*Кадры) : 0.073
Размер потока : 518 Мбайт (95%)
Default : Да
Forced : Нет
Цветовой диапазон : Limited
Основные цвета : BT.709
Характеристики трансфера : BT.709
Коэффициенты матрицы : BT.709

Аудио
Идентификатор : 2
Формат : AC-3
Формат/Информация : Audio Coding 3
Коммерческое название : Dolby Digital
Идентификатор кодека : A_AC3
Продолжительность : 19 м. 13 с.
Вид битрейта : Постоянный
Битрейт : 192 Кбит/сек
Каналы : 2 канала
Channel layout : L R
Частота : 48,0 КГц
Частота кадров : 31,250 кадров/сек (1536 SPF)
Метод сжатия : С потерями
Размер потока : 26,4 Мбайт (5%)
Заголовок : [Original | AC-3 Audio]
Язык : Russian
Service kind : Complete Main
Default : Да
Forced : Нет

Когда раздача ведётся путём добавления новых серий, при каждом добавлении создётся новый торрент. Чтобы начать докачку новой серии, пользователям необходимо сделать следующее:
(1) остановить скачивание,
(2) удалить старый торрент у себя из клиента (старые серии удалять не надо),
(3) скачать новый торрент и запустить его у себя в клиенте вместо старого, при этом указать клиенту путь в старую папку, куда и должно происходить скачивание новых серий.
Ваш клиент при этом должен произвести хеширование (проверку) старой папки (если не производит сам - помогите ему сделать это), и будет докачивать только те серии, которых у вас ещё нет. Старые серии при этом не удаляются, а продолжают раздаваться!
Eсли вы уже удалили старые серии, то предотвратить повторную закачку старых серий можно, отжав галочку в соответсвующих местах при запуске нового торрента. По возможности, желательно не удалять старые серии как можно дольше, чтобы релизёр не столько продолжал раздавать старые серии, а смог сконцентрироваться на новых.




Скачать Гости из прошлого через торрент https://i120.fastpic.org/big/2022/1121/55/1b197e0f3f25918174b7a6df917b7d55.jpg Скачать, смотреть онлайн Гости из прошлого бесплантно в хорошем качестве Описание: Советский изобретатель Матвей Пиотровский вместе с фарцовщиком Жориком, двумя ми внука из разных времён и семьёй Даниловых ... 8.3 10 16
Торрент: Зарегистрирован [2022-12-13 09:40] · скачан: 149 раз
Статус: √ проверено
Размер: 9.81 GB
Как cкачать? Как скачать Гости из прошлого через торрент | UTorrent

% Раздел Тема Автор DL S | L
Наши сериалы [ 4.41 GB ] Гости из прошлого / Сезон: 2 / Серии: 1-15 из 15 | | DLRip-AVC bober100 Скачать
13 | 3
Наши сериалы [ 9.37 GB ] Гости из прошлого / Сезон: 1 / Серии: 1-17 из 17 | | HDTV 1080i bober100 Скачать
3 | 0
Наши сериалы [ 10.54 GB ] Гости из прошлого / Сезон: 1 / Серии: 1-17 из 17 | | 1080p bober100 Скачать
1 | 0
Наши сериалы [ 6.26 GB ] Гости из прошлого / Сезон: 1 / Серии: 1-17 из 17 | | 720p bober100 Скачать
3 | 0
Наши сериалы [ 5.14 GB ] Гости из прошлого / Сезон: 1 / Серии: 1-17 из 17 | | DLRip-AVC bober100 Скачать
2 | 0
Наши сериалы [ 4.98 GB ] Гости из прошлого / Сезон: 1 / Серии: 1-17 из 17 | | DLRip bober100 Скачать
5 | 0



Последний раз редактировалось: bober100 (2022-12-21 17:06), всего редактировалось 5 раз(а)

28-11-2019 20:33  


Отключить вcю реклaмy на сайте, в т.ч. и в плеере онлайн просмотра!


30-11-2022 18:28 Гости из прошлого Скачать торрент  

2-й сезон вообще ниочём...



13-12-2022 22:31 Гости из прошлого Скачать торрент  

На четвертом скрине Стоянов с Домиником Торетто?



    Дорогой пользователь! Огромная просьба, поблагодарите релизера, оцените раздачу и оставьте свои комментарий, если Вы скачали Гости из прошлого через торрент бесплатно!!
    Комментировать посты могут только пользователи прошедшие не сложную регистрацию
    Показать сообщения:    


    Гости из прошлого через торрент
    Скачать бесплатно Гости из прошлого
    Гости из прошлого скачать торрент
    Гости из прошлого смотреть онлайн
    Cкачать фильм Гости из прошлого бесплатно
    Гости из прошлого скачать торрент в хорошем качестве
    Гости из прошлого смотреть онлайн бесплатно в хорошем качестве
    Вы не можете начинать темы
    Вы не можете отвечать на сообщения
    Вы не можете редактировать свои сообщения
    Вы не можете удалять свои сообщения
    Вы не можете голосовать в опросах
    Вы не можете прикреплять файлы к сообщениям
    Вы можете скачивать файлы
    Гости из прошлого / Сезон: 2 / Серии: 1-15 из 15 [2022, Комедия, WEB-DL 1080p] смотреть онлайн, скачать торрент picoco.icu