Достать ножи: Стеклянная луковица

MVO

Добыча

Дубляж

Уэнсдэй

1 сезон

Тор

Дубляж

13 клиническая

1 сезон

Жестокая ночь

MVO

Одни из нас

1 сезон

Deluxe

pack

Рекомендуем

30

Пиратка

ВАЖНО

ВАЖНО

Ghostwire

Пиратка

jed

RePack

nioh2

RePack

RDR2

RePack

NEED FOR SPEED™ PAYBACK

RePack

скачать торрент

Кинопоиск HD

Острые козырьки 6 сезон

6 сезон

FAR CRY 6

RePack

скачать торрент

Лицензия

скачать торрент

MVO

1

1 сезон

скачать торрент

1 сезон

скачать торрент

Лицензия

  

Альфа-разлом / Alpha Rift (Дэн Лэнц) [2021, Фантастика, фэнтези, боевик, BDRip 720p] MVO [OKKO]

Альфа-разлом через торрент pb.wtf

Раздают: 2 [ 0 KB/s ]
Размер: 3.24 GB | Добавлен: 2 мес. 3 д. назад | Торрент скачан:141 раз
Смотреть онлайн | Скачать | Поддержите нас   

03-12-2022 05:49 Альфа-разлом Скачать торрент  

Альфа-разлом
Alpha Rift

Год выпуска: 2021
Страна: США
Студия: Falling Cat Productions, Impulse-FX
Жанр: Фантастика, фэнтези, боевик
Продолжительность: 01:32:29
Перевод: Профессиональный (многоголосый) | OKKO
Субтитры: отсутствуют

Режиссер: Дэн Лэнц

rating

В ролях: Лэнс Хенриксен, Аарон Далла Вилла, Рэйчел Нилсен, Филип Н. Уильямс, Грэм Вульф, Питер Патрикиос, Крис Джеймс Бойлэн, Джек Хоффман, Джина Бруццезе, Адам Данофф, Брэндон МакКлэри, Брук Стейси Миллс, Эмили-Грейс Мюррэй, Билл Олт, Лес Прайс, Роб Статс

Описание: Простой парень Нолан узнает, что он является наследником старинного шлема, с помощью которого можно управлять демоном Драгсмиром. Темные силы сбежали из ада и вырвались на Землю. Теперь Нолан единственный, кто может открыть Альфа-Разлом и вернуть демонов обратно в ад.

Качество: BDRip 720p
Формат: MKV

Видео: MPEG-4 AVC, 1280x544, 4000 Kbit/s, 23.976 fps
Аудио #01: 48 kHz, AC3, 5.1, 384 Kbps | Профессиональный многоголосый | OKKO | RUS |
Аудио #02: 48 kHz, AC3, 5.1, 640 Kbps | Оригинал | ENG |
скриншот  скриншот  скриншот  скриншот  скриншот  скриншот  

General
Unique ID : 102643856423511662995445721936828963232 (0x4D387CD7E5E566DF3630846A73B619A0)
Complete name : F:VideoAlpha.Rift.2021.BDRip.720p.seleZen.mkv
Format : Matroska
Format version : Version 4
File size : 3.24 GiB
Duration : 1 h 32 min
Overall bit rate : 5 020 kb/s
Movie name : Alpha Rift 2021 from seleZen
Encoded date : UTC 2022-12-02 21:35:21
Writing application : mkvmerge v59.0.0 ('Shining Star') 64-bit
Writing library : libebml v1.4.2 + libmatroska v1.6.4

Video
ID : 1
Format : AVC
Format/Info : Advanced Video Codec
Format profile : [email protected]
Format settings : CABAC / 12 Ref Frames
Format settings, CABAC : Yes
Format settings, Reference : 12 frames
Codec ID : V_MPEG4/ISO/AVC
Duration : 1 h 32 min
Bit rate : 4 000 kb/s
Width : 1 280 pixels
Height : 544 pixels
Display aspect ratio : 2.35:1
Frame rate mode : Constant
Frame rate : 23.976 (24000/1001) FPS
Color space : YUV
Chroma subsampling : 4:2:0
Bit depth : 8 bits
Scan type : Progressive
Bits/(Pixel*Frame) : 0.240
Stream size : 2.58 GiB (80%)
Writing library : x264 core 164 r3085+55M seleZen t_mod_New [(8 & 10)[email protected] X86_64]
Encoding settings : cabac=1 / ref=12 / deblock=1:-2:-2 / analyse=0x3:0x133 / me=umh / subme=11 / psy=1 / fade_compensate=0.00 / psy_rd=1.02:0.02 / mixed_ref=1 / me_range=48 / chroma_me=1 / trellis=2 / 8x8dct=1 / cqm=0 / deadzone=21, 11 / fast_pskip=0 / chroma_qp_offset=-3 / threads=17 / lookahead_threads=4 / sliced_threads=0 / nr=0 / decimate=0 / interlaced=0 / bluray_compat=0 / constrained_intra=0 / fgo=0 / bframes=10 / b_pyramid=2 / b_adapt=2 / b_bias=0 / direct=3 / weightb=1 / open_gop=0 / weightp=2 / keyint=240 / keyint_min=23 / scenecut=40 / intra_refresh=0 / rc_lookahead=60 / rc=2pass / mbtree=0 / bitrate=4000 / ratetol=1.0 / qcomp=0.60 / qpmin=0:0:0 / qpmax=51:51:51 / qpstep=4 / cplxblur=20.0 / qblur=0.5 / vbv_maxrate=50000 / vbv_bufsize=62500 / nal_hrd=none / filler=0 / ip_ratio=1.40 / pb_ratio=1.30 / aq=3:0.80 / aq-sensitivity=10.00 / aq-factor=1.00:1.00:1.00 / aq2=0 / aq3=0
Language : English
Default : Yes
Forced : No

Audio #1
ID : 2
Format : AC-3
Format/Info : Audio Coding 3
Commercial name : Dolby Digital
Codec ID : A_AC3
Duration : 1 h 32 min
Bit rate mode : Constant
Bit rate : 384 kb/s
Channel(s) : 6 channels
Channel layout : L R C LFE Ls Rs
Sampling rate : 48.0 kHz
Frame rate : 31.250 FPS (1536 SPF)
Compression mode : Lossy
Stream size : 254 MiB (8%)
Title : MVO [OKKO]
Language : Russian
Service kind : Complete Main
Default : Yes
Forced : Yes

Audio #2
ID : 3
Format : AC-3
Format/Info : Audio Coding 3
Commercial name : Dolby Digital
Codec ID : A_AC3
Duration : 1 h 32 min
Bit rate mode : Constant
Bit rate : 640 kb/s
Channel(s) : 6 channels
Channel layout : L R C LFE Ls Rs
Sampling rate : 48.0 kHz
Frame rate : 31.250 FPS (1536 SPF)
Compression mode : Lossy
Stream size : 423 MiB (13%)
Title : Original
Language : English
Service kind : Complete Main
Default : No
Forced : No

Menu
00:00:00.000 : Глава 01
00:02:21.725 : Глава 02
00:13:16.504 : Глава 03
00:24:04.610 : Глава 04
00:37:03.513 : Глава 05
00:47:15.583 : Глава 06
00:56:22.254 : Глава 07
01:00:49.229 : Глава 08
01:10:21.676 : Глава 09
01:15:27.940 : Глава 10
01:21:46.693 : Глава 11
01:29:32.909 : Глава 12




Скачать Альфа-разлом через торрент https://i120.fastpic.org/big/2022/1203/dd/f9adaf5d3d7d5fdb4bdcdba7bd362ddd.jpg Скачать, смотреть онлайн Альфа-разлом бесплантно в хорошем качестве Описание: Простой парень Нолан узнает, что он является наследником старинного шлема, с помощью которого можно управлять демоном Драгсмиром. ... 8.2 10 5
Торрент: Зарегистрирован [2022-12-03 05:49] · скачан: 141 раз
Статус: √ проверено
Размер: 3.24 GB
Как cкачать? Как скачать Альфа-разлом через торрент | UTorrent

% Раздел Тема Автор DL S | L
Фильмы [HD 720p, 1080p] (Хороший звук DUB, MVO) [ 7.26 GB ] Альфа-разлом / Alpha Rift | OKKO | 1080p bober100 Скачать
2 | 0

28-11-2019 20:33  


Отключить вcю реклaмy на сайте, в т.ч. и в плеере онлайн просмотра!

03-12-2022 18:00 Альфа-разлом Скачать торрент  

рен тв?



08-12-2022 13:47 Альфа-разлом Скачать торрент  

Шляпа а не фильм



    Дорогой пользователь! Огромная просьба, поблагодарите релизера, оцените раздачу и оставьте свои комментарий, если Вы скачали Альфа-разлом через торрент бесплатно!!
    Комментировать посты могут только пользователи прошедшие не сложную регистрацию
    Показать сообщения:    


    Альфа-разлом через торрент
    Скачать бесплатно Альфа-разлом
    Альфа-разлом скачать торрент
    Альфа-разлом смотреть онлайн
    Cкачать фильм Альфа-разлом бесплатно
    Альфа-разлом скачать торрент в хорошем качестве
    Альфа-разлом смотреть онлайн бесплатно в хорошем качестве
    Вы не можете начинать темы
    Вы не можете отвечать на сообщения
    Вы не можете редактировать свои сообщения
    Вы не можете удалять свои сообщения
    Вы не можете голосовать в опросах
    Вы не можете прикреплять файлы к сообщениям
    Вы можете скачивать файлы
    Альфа-разлом / Alpha Rift [2021, Фантастика, фэнтези, боевик, BDRip 720p] MVO [OKKO] смотреть онлайн, скачать торрент picoco.icu