Достать ножи: Стеклянная луковица

MVO

Добыча

Дубляж

Уэнсдэй

1 сезон

Тор

Дубляж

13 клиническая

1 сезон

Жестокая ночь

MVO

Одни из нас

1 сезон

Deluxe

pack

Рекомендуем

30

Пиратка

ВАЖНО

ВАЖНО

Ghostwire

Пиратка

jed

RePack

nioh2

RePack

RDR2

RePack

NEED FOR SPEED™ PAYBACK

RePack

скачать торрент

Кинопоиск HD

Острые козырьки 6 сезон

6 сезон

FAR CRY 6

RePack

скачать торрент

Лицензия

скачать торрент

MVO

1

1 сезон

скачать торрент

1 сезон

скачать торрент

Лицензия

  

Либерея: Охотники за сокровищами (Глеб Орлов) [2022, Приключения, WEB-DLRip-AVC] [IVI]

Либерея: Охотники за сокровищами через торрент pb.wtf

Раздают: 6 [ 0 KB/s ]
Размер: 1.39 GB | Добавлен: 2 мес. 3 д. назад | Торрент скачан:299 раз
Смотреть онлайн | Скачать | Поддержите нас   

03-12-2022 13:56 Либерея: Охотники за сокровищами Скачать торрент  

Либерея: Охотники за сокровищами
Год выпуска: 2022
Страна: Россия
Выпущено: АНО «Медиа Юниверсал Ивент», Централ Партнершип
Жанр: Приключения
Продолжительность: 01:45:12
Перевод: Не требуется | IVI
Субтитры: отсутствуют

Режиссер: Глеб Орлов

rating

В ролях: Тихон Жизневский, Алексей Серебряков, Диана Пожарская, Артём Ткаченко, Сергей Газаров, Андрей Трушин, Павел Гайдученко, Мария Маслова, Альбина Евтушевская, Дмитрий Чукин

Описание: При строительстве столичного метро рабочие обнаруживают драгоценный оклад, который доказывает — легендарная Библиотека Ивана Грозного существует! Но находка оказывается забыта на долгие годы, и уже в наше время попадает в руки ни о чем не подозревающего Ильи. Теперь его жизнь в опасности, ведь за старинным артефактом начинают охоту могущественные силы! Парень вынужден объединиться со странным незнакомцем, который утверждает, что оклад — это ключ к обнаружению Библиотеки. Помочь им в поисках и разгадать древние шифры берется красотка-филолог Арина. Теперь, чтобы обрести новые ключи-подсказки и приблизиться к разгадке, трио авантюристов нужно побывать в затерянных и опасных местах, разбросанных по всей России: от Вологды до Нарьян-Мара, на суше, под водой и даже в тайных подземельях Кремля.

Качество: WEB-DLRip-AVC
Формат: MKV

Видео: MPEG-4 AVC, 1032x432 (2,40:1), 1502 kbps, 23.976 fps
Аудио: 48 kHz, AC3 Dolby Digital, 3/2 (L, C, R, l, r) + LFE ch, ~384 Kbps
скриншот  скриншот  скриншот  скриншот  скриншот  скриншот  

Общее
Уникальный идентификатор : 297072194400769339344230246519630792609 (0xDF7E06030E4480157EF0034BBA9D07A1)
Полное имя : C:Libereya.Ohotniki.Za.Sokrovischami.2022.WEB-DLRip.x264.ExKinoRay.mkv
Формат : Matroska
Версия формата : Version 4
Размер файла : 1,39 Гбайт
Продолжительность : 1 ч. 45 м.
Общий поток : 1 887 Кбит/сек
Название фильма : Либерея: Охотники за сокровищами (2022)
Дата кодирования : UTC 2022-12-03 12:22:56
Программа кодирования : mkvmerge v62.0.0 ('Apollo') 64-bit
Библиотека кодирования : libebml v1.4.2 + libmatroska v1.6.4

Видео
Идентификатор : 1
Формат : AVC
Формат/Информация : Advanced Video Codec
Профиль формата : [email protected]
Настройки формата : CABAC / 12 Ref Frames
Параметр CABAC формата : Да
Параметр RefFrames формата : 12 кадров
Идентификатор кодека : V_MPEG4/ISO/AVC
Продолжительность : 1 ч. 45 м.
Битрейт : 1 502 Кбит/сек
Ширина : 1 032 пикселя
Высота : 432 пикселя
Соотношение сторон : 2,40:1
Режим частоты кадров : Постоянный
Частота кадров : 24,000 кадра/сек
Цветовое пространство : YUV
Субдискретизация насыщенности : 4:2:0
Битовая глубина : 8 бит
Тип развёртки : Прогрессивная
Бит/(Пиксели*Кадры) : 0.140
Размер потока : 1,08 Гбайт (78%)
Заголовок : potroks
Библиотека кодирования : x264 core 163
Настройки программы : cabac=1 / ref=12 / deblock=1:-2:-2 / analyse=0x3:0x133 / me=umh / subme=11 / psy=1 / psy_rd=1.00:0.05 / mixed_ref=1 / me_range=48 / chroma_me=0 / trellis=2 / 8x8dct=1 / cqm=0 / deadzone=21,11 / fast_pskip=0 / chroma_qp_offset=-3 / threads=19 / lookahead_threads=3 / sliced_threads=0 / nr=0 / decimate=1 / interlaced=0 / bluray_compat=0 / constrained_intra=0 / bframes=10 / b_pyramid=2 / b_adapt=2 / b_bias=0 / direct=0 / weightb=1 / open_gop=0 / weightp=2 / keyint=250 / keyint_min=23 / scenecut=40 / intra_refresh=0 / rc_lookahead=100 / rc=2pass / mbtree=0 / bitrate=1502 / ratetol=1.0 / qcomp=0.70 / qpmin=0 / qpmax=69 / qpstep=5 / cplxblur=20.0 / qblur=0.5 / vbv_maxrate=50000 / vbv_bufsize=62500 / nal_hrd=none / filler=0 / ip_ratio=1.40 / pb_ratio=1.30 / aq=1:0.80
Язык : Russian
Default : Да
Forced : Нет

Аудио
Идентификатор : 2
Формат : AC-3
Формат/Информация : Audio Coding 3
Коммерческое название : Dolby Digital
Идентификатор кодека : A_AC3
Продолжительность : 1 ч. 45 м.
Вид битрейта : Постоянный
Битрейт : 384 Кбит/сек
Каналы : 6 каналов
Channel layout : L R C LFE Ls Rs
Частота : 48,0 КГц
Частота кадров : 31,250 кадров/сек (1536 SPF)
Битовая глубина : 16 бит
Метод сжатия : С потерями
Размер потока : 289 Мбайт (20%)
Заголовок : Original AC3 (IVI)
Язык : Russian
Service kind : Complete Main
Default : Да
Forced : Нет




Скачать Либерея: Охотники за сокровищами через торрент https://i6-imageban-ru.translate.goog/out/2022/12/03/811b7fa4cac444f02aa64d02dce6916c.jpg Скачать, смотреть онлайн Либерея: Охотники за сокровищами бесплантно в хорошем качестве Описание: При строительстве столичного метро рабочие обнаруживают драгоценный оклад, который доказывает — легендарная Библиотека Ивана ... 8.8 10 9
Info! Золотая раздача, скачанное не засчитывается.
Торрент: Зарегистрирован [2022-12-03 13:56] · скачан: 299 раз
Статус: √ проверено
Размер: 1.39 GB
Как cкачать? Как скачать Либерея: Охотники за сокровищами через торрент | UTorrent

% Раздел Тема Автор DL S | L
Наши новые фильмы 2020 - 2023 [ 747 MB ] Либерея: Охотники за сокровищами | IVI | DLRip bober100 Скачать
4 | 0
Наши фильмы (HD, WEB-DL 720p, 1080p) [ 4.42 GB ] Либерея: Охотники за сокровищами | IVI | 1080p bober100 Скачать
11 | 0
Наши новые фильмы 2020 - 2023 [ 1.46 GB ] Либерея: Охотники за сокровищами | IVI | DLRip bober100 Скачать
6 | 0

28-11-2019 20:33  


Отключить вcю реклaмy на сайте, в т.ч. и в плеере онлайн просмотра!

08-12-2022 16:18 Либерея: Охотники за сокровищами Скачать торрент  

Режисура никакая, игра никакая. Жалкое подобие "Сокровище нации"



    Дорогой пользователь! Огромная просьба, поблагодарите релизера, оцените раздачу и оставьте свои комментарий, если Вы скачали Либерея: Охотники за сокровищами через торрент бесплатно!!
    Комментировать посты могут только пользователи прошедшие не сложную регистрацию
    Показать сообщения:    


    Либерея: Охотники за сокровищами через торрент
    Скачать бесплатно Либерея: Охотники за сокровищами
    Либерея: Охотники за сокровищами скачать торрент
    Либерея: Охотники за сокровищами смотреть онлайн
    Cкачать фильм Либерея: Охотники за сокровищами бесплатно
    Либерея: Охотники за сокровищами скачать торрент в хорошем качестве
    Либерея: Охотники за сокровищами смотреть онлайн бесплатно в хорошем качестве
    Вы не можете начинать темы
    Вы не можете отвечать на сообщения
    Вы не можете редактировать свои сообщения
    Вы не можете удалять свои сообщения
    Вы не можете голосовать в опросах
    Вы не можете прикреплять файлы к сообщениям
    Вы можете скачивать файлы
    Либерея: Охотники за сокровищами [2022, Приключения, WEB-DLRip-AVC] [IVI] смотреть онлайн, скачать торрент picoco.icu