Достать ножи: Стеклянная луковица

MVO

Добыча

Дубляж

Уэнсдэй

1 сезон

Тор

Дубляж

13 клиническая

1 сезон

Жестокая ночь

MVO

Одни из нас

1 сезон

Deluxe

pack

Рекомендуем

30

Пиратка

ВАЖНО

ВАЖНО

Ghostwire

Пиратка

jed

RePack

nioh2

RePack

RDR2

RePack

NEED FOR SPEED™ PAYBACK

RePack

скачать торрент

Кинопоиск HD

Острые козырьки 6 сезон

6 сезон

FAR CRY 6

RePack

скачать торрент

Лицензия

скачать торрент

MVO

1

1 сезон

скачать торрент

1 сезон

скачать торрент

Лицензия

  

Там, где раки поют / Where the Crawdads Sing (Оливия Ньюман) [2022, Триллер, драма, детектив, BDRip-AVC] Дубляж [iTunes]

Там, где раки поют через торрент pb.wtf

Раздают: 10 [ 120 KB/s ]
Размер: 2.77 GB | Добавлен: 2 мес. назад | Торрент скачан:138 раз
Смотреть онлайн | Скачать | Поддержите нас   

03-12-2022 18:08 Там, где раки поют Скачать торрент  

Там, где раки поют
Where the Crawdads Sing

Год выпуска: 2022
Страна: США
Студия: 3000 Pictures, Hello Sunshine
Жанр: Триллер, драма, детектив
Продолжительность: 02:05:25
Перевод: Дублированный | iTunes
Субтитры: Русские (Full), английские, французские

Режиссер: Оливия Ньюман

rating

В ролях: Дэйзи Эдгар-Джонс, Харрис Дикинсон, Гаррет Диллахант, Дэвид Стрэтэйрн, Тейлор Джон Смит, Ана О’Райли, Майкл Хайатт, Эрик Ладин, Чарли Талберт, Люк Дэвид Блум

Описание: Загадочная и непокорная Кия Кларк выросла в одиночестве на болотах близ города Баркли-Коув, а жители прозвали ее Болотной девушкой. Однажды героиня оказывается главной подозреваемой в убийстве одного горожанина.

Качество: BDRip-AVC
Формат: MKV

Видео: MPEG-4 AVC, 1024x428 at 23.976 fps, [email protected], ~2326 kbps
Аудио #01: 48 kHz, AC3, 5.1, 384 Kbps | Дублированный | iTunes | RUS |
Аудио #02: 48 kHz, AC3, 5.1, 448 Kbps | Оригинал | ENG |
скриншот  скриншот  скриншот  скриншот  

x264 [info]: frame I:1569 Avg QP:16.47 size: 72857
x264 [info]: frame P:35873 Avg QP:18.64 size: 27265
x264 [info]: frame B:142990 Avg QP:20.32 size: 7663
x264 [info]: consecutive B-frames: 1,5% 1,9% 4,1% 21,5% 17,0% 34,2% 7,3% 7,5% 1,8% 0,6% 0,7% 1,5% 0,4%

General
Unique ID : 124536664028880744241229528824644824795 (0×5DB0E3984DF02E72E44BB13860CEEEDB)
Complete name : D:Where.the.Crawdads.Sing.2022.Дубляж.BDRip.x264.seleZen.mkv
Format : Matroska
Format version : Version 4
File size : 2.77 GiB
Duration : 2 h 5 min
Overall bit rate : 3 161 kb/s
Movie name : Where.the.Crawdads.Sing.2022.Дубляж.BDRip.x264.seleZen
Encoded date : UTC 03.12.2022 17:25:22
Writing application : mkvmerge v72.0.0 ('Minuano (Six-eight)') 64-bit
Writing library : libebml v1.4.4 + libmatroska v1.7.1
Cover : Yes
Attachments : cover.jpg / small_cover.jpg

Video
ID : 1
Format : AVC
Format/Info : Advanced Video Codec
Format profile : [email protected]
Format settings : CABAC / 14 Ref Frames
Format settings, CABAC : Yes
Format settings, Reference : 14 frames
Codec ID : V_MPEG4/ISO/AVC
Duration : 2 h 5 min
Bit rate : 2 326 kb/s
Width : 1 024 pixels
Height : 428 pixels
Display aspect ratio : 2.40:1
Frame rate mode : Constant
Frame rate : 23.976 (24000/1001) FPS
Color space : YUV
Chroma subsampling : 4:2:0
Bit depth : 8 bits
Scan type : Progressive
Bits/(Pixel*Frame) : 0.221
Stream size : 2.04 GiB (74%)
Title : -=DoMiNo=-
Writing library : x264 core 164 by -=DoMiNo=-
Encoding settings : cabac=1 / ref=14 / deblock=1:-3:-2 / analyse=0×3:0×133 / me=umh / subme=11 / psy=1 / psy_rd=1.02:0.02 / mixed_ref=1 / me_range=32 / chroma_me=1 / trellis=2 / 8×8dct=1 / cqm=0 / deadzone=21,11 / fast_pskip=0 / chroma_qp_offset=-3 / threads=17 / lookahead_threads=3 / sliced_threads=0 / nr=0 / decimate=0 / interlaced=0 / bluray_compat=0 / constrained_intra=0 / bframes=12 / b_pyramid=2 / b_adapt=2 / b_bias=0 / direct=1 / weightb=1 / open_gop=0 / weightp=2 / keyint=250 / keyint_min=23 / scenecut=40 / intra_refresh=0 / rc_lookahead=60 / rc=crf / mbtree=0 / crf=18.0 / qcomp=0.65 / qpmin=0 / qpmax=69 / qpstep=4 / vbv_maxrate=50000 / vbv_bufsize=62500 / crf_max=0.0 / nal_hrd=none / filler=0 / ip_ratio=1.40 / pb_ratio=1.30 / aq=3:0.80
Language : English
Default : Yes
Forced : No

Audio #1
ID : 2
Format : AC-3
Format/Info : Audio Coding 3
Commercial name : Dolby Digital
Codec ID : A_AC3
Duration : 2 h 5 min
Bit rate mode : Constant
Bit rate : 384 kb/s
Channel (s) : 6 channels
Channel layout : L R C LFE Ls Rs
Sampling rate : 48.0 kHz
Frame rate : 31.250 FPS (1536 SPF)
Compression mode : Lossy
Stream size : 344 MiB (12%)
Title : Дубляж
Language : Russian
Service kind : Complete Main
Default : Yes
Forced : Yes

Audio #2
ID : 3
Format : AC-3
Format/Info : Audio Coding 3
Commercial name : Dolby Digital
Codec ID : A_AC3
Duration : 2 h 5 min
Bit rate mode : Constant
Bit rate : 448 kb/s
Channel (s) : 6 channels
Channel layout : L R C LFE Ls Rs
Sampling rate : 48.0 kHz
Frame rate : 31.250 FPS (1536 SPF)
Compression mode : Lossy
Stream size : 402 MiB (14%)
Title : Original
Language : English
Service kind : Complete Main
Default : No
Forced : No

Text #1
ID : 4
Format : UTF-8
Codec ID : S_TEXT/UTF8
Codec ID/Info : UTF-8 Plain Text
Duration : 1 h 59 min
Bit rate : 80 b/s
Count of elements : 1410
Stream size : 70.4 KiB (0%)
Title : Full
Language : Russian
Default : No
Forced : No

Text #2
ID : 5
Format : UTF-8
Codec ID : S_TEXT/UTF8
Codec ID/Info : UTF-8 Plain Text
Duration : 1 h 59 min
Bit rate : 51 b/s
Count of elements : 1288
Stream size : 45.1 KiB (0%)
Title : Full
Language : English
Default : No
Forced : No

Text #3
ID : 6
Format : UTF-8
Codec ID : S_TEXT/UTF8
Codec ID/Info : UTF-8 Plain Text
Duration : 2 h 4 min
Bit rate : 55 b/s
Count of elements : 1451
Stream size : 50.7 KiB (0%)
Title : SDH
Language : English
Default : No
Forced : No

Text #4
ID : 7
Format : UTF-8
Codec ID : S_TEXT/UTF8
Codec ID/Info : UTF-8 Plain Text
Duration : 2 h 4 min
Bit rate : 47 b/s
Count of elements : 1332
Stream size : 43.3 KiB (0%)
Title : Full
Language : French
Default : No
Forced : No

Menu
00:00:00.000 : en:Chapter 1
00:08:45.191 : en:Chapter 2
00:15:25.967 : en:Chapter 3
00:22:13.958 : en:Chapter 4
00:29:12.834 : en:Chapter 5
00:36:33.316 : en:Chapter 6
00:46:39.338 : en:Chapter 7
00:54:06.660 : en:Chapter 8
01:00:51.231 : en:Chapter 9
01:06:53.301 : en:Chapter 10
01:15:50.463 : en:Chapter 11
01:22:19.101 : en:Chapter 12
01:29:23.441 : en:Chapter 13
01:36:23.152 : en:Chapter 14
01:43:36.335 : en:Chapter 15
01:53:24.089 : en:Chapter 16
02:00:59.627 : en:Chapter 17




Скачать Там, где раки поют через торрент https://i120.fastpic.org/big/2022/0909/e7/7a3b52acac8f301e59e142c947dd22e7.jpg Скачать, смотреть онлайн Там, где раки поют бесплантно в хорошем качестве Описание: Загадочная и непокорная Кия Кларк выросла в одиночестве на болотах близ города Баркли-Коув, а жители прозвали ее Болотной ... 10 10 3
Info! Золотая раздача, скачанное не засчитывается.
Торрент: Зарегистрирован [2022-12-03 18:08] · скачан: 138 раз
Статус: √ проверено
Размер: 2.77 GB
Как cкачать? Как скачать Там, где раки поют через торрент | UTorrent

% Раздел Тема Автор DL S | L
Фильмы 2022-2023 [DVDrip, WEB-DLRip, HDrip] (DUB, MVO) [ 747 MB ] Там, где раки поют / Where the Crawdads Sing | iTunes | HDRip bober100 Скачать
2 | 0
Фильмы [HD 720p, 1080p] (Хороший звук DUB, MVO) [ 8.6 GB ] Там, где раки поют / Where the Crawdads Sing | iTunes | 720p bober100 Скачать
8 | 0
Фильмы 2022-2023 [DVDrip, WEB-DLRip, HDrip] (DUB, MVO) [ 2.13 GB ] Там, где раки поют / Where the Crawdads Sing | iTunes | BDRip bober100 Скачать
2 | 0
Фильмы 2022-2023 [DVDrip, WEB-DLRip, HDrip] (DUB, MVO) [ 1.46 GB ] Там, где раки поют / Where the Crawdads Sing | iTunes | BDRip bober100 Скачать
3 | 0
Фильмы (Blu-ray, BD-Remux, HDDVD) [ 23.97 GB ] Там, где раки поют / Where the Crawdads Sing | iTunes | BD Remux 1080p bober100 Скачать
1 | 0
Фильмы [HD 720p, 1080p] (Хороший звук DUB, MVO) [ 16.2 GB ] Там, где раки поют / Where the Crawdads Sing | iTunes | 1080p bober100 Скачать
4 | 0
Фильмы 2022-2023 [DVDrip, WEB-DLRip, HDrip] (DUB, MVO) [ 2.13 GB ] Там, где раки поют / Where the Crawdads Sing | Jaskier | BDRip bober100 Скачать
18 | 0

28-11-2019 20:33  


Отключить вcю реклaмy на сайте, в т.ч. и в плеере онлайн просмотра!

06-12-2022 03:35 Там, где раки поют Скачать торрент  

Думал что какой то детектив судя по описанию, а оказалось очередной высер про "сильную и независимую"



    Дорогой пользователь! Огромная просьба, поблагодарите релизера, оцените раздачу и оставьте свои комментарий, если Вы скачали Там, где раки поют через торрент бесплатно!!
    Комментировать посты могут только пользователи прошедшие не сложную регистрацию
    Показать сообщения:    


    Там, где раки поют через торрент
    Скачать бесплатно Там, где раки поют
    Там, где раки поют скачать торрент
    Там, где раки поют смотреть онлайн
    Cкачать фильм Там, где раки поют бесплатно
    Там, где раки поют скачать торрент в хорошем качестве
    Там, где раки поют смотреть онлайн бесплатно в хорошем качестве
    Вы можете начинать темы
    Вы можете отвечать на сообщения
    Вы не можете редактировать свои сообщения
    Вы не можете удалять свои сообщения
    Вы не можете голосовать в опросах
    Вы не можете прикреплять файлы к сообщениям
    Вы можете скачивать файлы
    Там, где раки поют / Where the Crawdads Sing [2022, Триллер, драма, детектив, BDRip-AVC] Дубляж [iTunes] смотреть онлайн, скачать торрент picoco.icu