Достать ножи: Стеклянная луковица

MVO

Добыча

Дубляж

Уэнсдэй

1 сезон

Тор

Дубляж

13 клиническая

1 сезон

Жестокая ночь

MVO

Одни из нас

1 сезон

Deluxe

pack

Рекомендуем

30

Пиратка

ВАЖНО

ВАЖНО

Ghostwire

Пиратка

jed

RePack

nioh2

RePack

RDR2

RePack

NEED FOR SPEED™ PAYBACK

RePack

скачать торрент

Кинопоиск HD

Острые козырьки 6 сезон

6 сезон

FAR CRY 6

RePack

скачать торрент

Лицензия

скачать торрент

MVO

1

1 сезон

скачать торрент

1 сезон

скачать торрент

Лицензия

  

Главная дорога (17.12.2022) SATRip

Главная дорога через торрент pb.wtf

Раздают: 1 [ 0 KB/s ]
Размер: 331 MB | Добавлен: 1 мес. 9 д. назад | Торрент скачан:12 раз
| Скачать | Поддержите нас   

17-12-2022 18:18 Главная дорога Скачать торрент  

Главная дорога (17.12.2022) SATRip
Телекомпания: НТВ
Жанр: Телепередача
Ведущие: Денис Юченков, Андрей Федорцов

Описание: Мамкин гонщик: в Липецке задержали 18-летнего гонщика за рулем Lada Priora. Пройти медицинское освидетельствование он отказался, но прав его так и не лишили. Почему?
Любовь прошла, остался без машины: причем здесь электронный ПТС?
4–15–2–30–2–15–2–12! Эта сложная, на первый взгляд, формула спасает водителей от смертельно опасного сна за рулем. Ведь сонный водитель — все равно, что пьяный. Андрей Федорцов и Денис Юченков проверили, чем опасна зевота за рулем, почему седьмой «зевок» — последний, а также рассказали, как перебороть сон, чтобы безопасно доехать до места стоянки.
Новые дорожные ловушки.



Релиз от: Хотт@быч
Продолжительность: 00:26:03
Качество видео: SATRip

Видео: AVC/H.264, 720x400, 1650 Kbps
Аудио: AAC, 2 ch, 128 Kbps
General
Complete name : D:\Torrent_NNM_3\Glavnaya.doroga.17.12.2022.mp4
Format : MPEG-4
Format profile : Base Media
Codec ID : isom (isom/iso2/avc1/mp41)
File size : 331 MiB
Duration : 26 min 3 s
Overall bit rate mode : Constant
Overall bit rate : 1 774 kb/s
HDVideo : Yes

Video
ID : 1
Format : AVC
Format/Info : Advanced Video Codec
Format profile : [email protected]
Format settings : CABAC / 2 Ref Frames
Format settings, CABAC : Yes
Format settings, Reference frames : 2 frames
Codec ID : avc1
Codec ID/Info : Advanced Video Coding
Duration : 26 min 3 s
Bit rate mode : Constant
Bit rate : 1 640 kb/s
Width : 720 pixels
Height : 400 pixels
Display aspect ratio : 16:9
Frame rate mode : Constant
Frame rate : 25.000 FPS
Color space : YUV
Chroma subsampling : 4:2:0
Bit depth : 8 bits
Scan type : Progressive
Bits/(Pixel*Frame) : 0.228
Stream size : 306 MiB (92%)
Language : English
Codec configuration box : avcC

Audio
ID : 2
Format : AAC LC
Format/Info : Advanced Audio Codec Low Complexity
Codec ID : mp4a-40-2
Duration : 26 min 3 s
Bit rate mode : Constant
Bit rate : 128 kb/s
Channel(s) : 2 channels
Channel layout : L R
Sampling rate : 48.0 kHz
Frame rate : 46.875 FPS (1024 SPF)
Compression mode : Lossy
Stream size : 23.9 MiB (7%)
Language : English
Default : Yes
Alternate group : 1
Скриншоты:



Скачать Главная дорога через торрент https://i.ibb.co/KzxDT8H/70ae5edb42f6b35e561918ea87c2f.jpg Скачать, смотреть онлайн Главная дорога бесплантно в хорошем качестве Описание: Мамкин гонщик: в Липецке задержали 18-летнего гонщика за рулем Lada Priora. Пройти медицинское освидетельствование он отказался, ... 10 10 1
Торрент: Зарегистрирован [2022-12-17 18:18] · скачан: 12 раз
Статус: не проверено
Размер: 331 MB
Как cкачать? Как скачать Главная дорога через торрент | UTorrent

28-11-2019 20:33  


Отключить вcю реклaмy на сайте, в т.ч. и в плеере онлайн просмотра!

    Дорогой пользователь! Огромная просьба, поблагодарите релизера, оцените раздачу и оставьте свои комментарий, если Вы скачали Главная дорога через торрент бесплатно!!
    Комментировать посты могут только пользователи прошедшие не сложную регистрацию
    Показать сообщения:    


    Главная дорога через торрент
    Скачать бесплатно Главная дорога
    Главная дорога скачать торрент
    Главная дорога смотреть онлайн
    Cкачать фильм Главная дорога бесплатно
    Главная дорога скачать торрент в хорошем качестве
    Главная дорога смотреть онлайн бесплатно в хорошем качестве
    Вы не можете начинать темы
    Вы не можете отвечать на сообщения
    Вы не можете редактировать свои сообщения
    Вы не можете удалять свои сообщения
    Вы не можете голосовать в опросах
    Вы не можете прикреплять файлы к сообщениям
    Вы можете скачивать файлы
    Главная дорога SATRip смотреть онлайн, скачать торрент picoco.icu