Всегда рабочее зеркало без VPN и Proxy просто перед .vidak.icu напиши любое слово или цифру, Пример http://hwmz.vidak.icu

Лицензия

MVO

1 сезон

1

1 сезон

iTunes

1 сезон

13

1 сезон

Deluxe

pack

Рекомендуем

Repack

30

ВАЖНО

RePack

MK11

RePack

jed

RePack

fifa19

RePack

RDR2

RePack

NEED FOR SPEED™ PAYBACK

Кинопоиск HD

6 сезон

 Острые козырьки 6 сезон

Все сериалы

все сериалы на PB.wtf

RePack

FAR CRY 5
  
Magnet ссылка

Легенды ночных стражей / Legend of the Guardians: The Owls of Ga’Hoole (Зак Снайдер) [2010 г., мультфильм, фэнтези, приключения, HDRip, лицензия] pb.wtf

Легенды ночных стражей через торрент pb.wtf

Размер: 836 MB | Добавлен: 11 лет назад | Торрент скачан:51 раз
Смотреть онлайн Легенды ночных стражей | Скачать    Ребята, помогите собрать деньги на оплату серверов!!!

26-02-2011 21:03 Легенды ночных стражей Скачать торрент  

Легенды ночных стражей / Legend of the Guardians: The Owls of Ga’Hoole

Год выпуска: 2010
Страна: США, Австралия
Жанр: мультфильм, фэнтези, приключения
Продолжительность: 90 мин.
Перевод: Профессиональный (полное дублирование) [Лицензия]
Тип релиза: Лицензия

Режиссер: Зак Снайдер
Продюссер: Зарех Налбандян, Уэсли Коллер, Кристофер ДеФариа
Сценарий: Джон Орлофф, Эмиль Штерн, Кэтрин Ласки

Бюджет: $80 000 000

PG
-Рекомендуется присутствие родителей
Мировой рейтинг IMDB 7.00 (12 433)


В ролях: Джим Стерджесс, Райан Квантен, Джоэл Эдгертон, Хелен Миррен, Джеффри Раш, Эдриэнн ДеФариа, Эмили Барклай, Сэм Нил, Энтони ЛаПалья, Дэвид Уэн

Описание: Миром, в котором уже не осталось людей, правят совы… добрые… злые… как и всегда! В волшебном лесу — королевстве сов Тито — на Великом Дереве Га`Хуул, где разумные совы живут в гармонии, наступают мрачные времена. Королевство подвергается страшной опасности со стороны соседних жестоких правителей, и эта опасность грозит уничтожить привычное мироздание.
Качество: HDRip[источник BDRip 1080p ]
Формат: AVI
Видео кодек: XviD
Аудио кодек: MP3
Видео: MPEG4, XviD, 640x272 (2.35), 23.976 fps, 941 Kbps (0.225 bit/pixel)
Аудио: MP3 , 48.0 KHz, 2 ch, 128 Kbps, CBR
Общее
Полное имя : Legendy.nochnyh.strazhey.2010.D.HDRip.745MB.avi
Формат : AVI
Формат/Информация : Audio Video Interleave
Размер файла : 747 Мбайт
Продолжительность : 1 ч. 36 м.
Общий поток : 1078 Кбит/сек
Программа кодирования : VirtualDubMod 1.5.10.3 (build 2550/release)
Библиотека кодирования : VirtualDubMod build 2550/release

Видео
Идентификатор : 0
Формат : MPEG-4 Visual
Профиль формата : Advanced [email protected]
Параметр BVOP формата : Да
Параметр QPel формата : Нет
Параметр GMC формата : Без точки перехода
Параметр матрицы формата : Выборочная
Идентификатор кодека : XVID
Идентификатор кодека/Подсказка : XviD
Продолжительность : 1 ч. 36 м.
Битрейт : 941 Кбит/сек
Ширина : 640 пикс.
Высота : 272 пикс.
Соотношение сторон : 2,35:1
Частота кадров : 23,976 кадр/сек
Цветовое пространство : YUV
Подвыборка цветности : 4:2:0
Битовая глубина : 8 бит
Тип развёртки : Прогрессивная
Метод сжатия : С потерями
Бит/(Пиксели*Кадры) : 0.225
Размер потока : 652 Мбайт (87%)
Библиотека кодирования : XviD 58

Аудио
Идентификатор : 1
Формат : MPEG Audio
Версия формата : Version 1
Профиль формата : Layer 3
Режим : Joint stereo
Расширение режима : MS Stereo
Идентификатор кодека : 55
Идентификатор кодека/Подсказка : MP3
Продолжительность : 1 ч. 36 м.
Вид битрейта : Постоянный
Битрейт : 128 Кбит/сек
Канал(ы) : 2 канала(ов)
Частота : 48,0 КГц
Метод сжатия : С потерями
Размер потока : 88,6 Мбайт (12%)
Выравнивание : Соединение по промежуткам
Продолжительность промежутка : 42 мс. (1,00 видеокадр)
Время предзагрузки промежутка : 504 ms

скриншот  скриншот  скриншот  

pb.wtf



Скачать Легенды ночных стражей через торрент http://i13.fastpic.ru/big/2010/1217/29/4ac9e7e0495ea5601ca82f9552971829.jpg Скачать, смотреть онлайн Легенды ночных стражей бесплантно в хорошем качестве Описание: Миром, в котором уже не осталось людей, правят совы… добрые… злые… как и всегда! В волшебном ... 10 10 5
Info! Золотая раздача, скачанное не засчитывается.
Торрент: Зарегистрирован [2011-02-26 21:03] · скачан: 51 раз
Статус: √ проверено
Размер: 836 MB
Как cкачать? Как скачать Легенды ночных стражей через торрент | UTorrent

% Раздел Тема Автор DL S | L
Мультфильмы (48-60 fps) [ 6.68 GB ] Легенды ночных стражей / Legend of the Guardians: The Owls of Ga’Hoole 60FPS [2010 Австралия мультфильм BDRip 720p [] KEYS Скачать
1 | 0
3D Мультфильмы [ 12.99 GB ] Легенды ночных стражей 3Д / Legend of the Guardians: The Owls of Ga’Hoole 3D [2010 мультфильм BDrip 1080p] OverUnder / Вертикальная стереопара ACFIORENTINA Скачать
1 | 0
Зарубежные Мультфильмы (BDRip 1080p, 720p, Blu-ray, BD-Remux) [ 17.41 GB ] Легенды ночных стражей / Legend of the Guardians: The Owls of Ga’Hoole [2010 мультфильм BDRemux 1080p] .::Sergey::. Скачать
1 | 0
Иностранные мультфильмы [ 1.37 GB ] Легенды ночных стражей / Legend of the Guardians: The Owls of Ga'Hoole [2010 мультфильм HDRip лицензия] SD Скачать
1 | 0
Зарубежные Мультфильмы (BDRip 1080p, 720p, Blu-ray, BD-Remux) [ 5.12 GB ] Легенды ночных стражей / Legend of the Guardians: The Owls of Ga’Hoole [2010 мультфильм BDRip720p] Anonymous Скачать
1 | 0
3D Мультфильмы [ 5.72 GB ] Легенды ночных стражей 3Д / Legend of the Guardians: The Owls of Ga’Hoole 3D [2010 мультфильм BDrip 1080p] Anaglyph DUBois / Анаглиф Дюбуа ACFIORENTINA Скачать
1 | 0
3D Мультфильмы [ 1.47 GB ] Легенды ночных стражей 3Д / Legend of the Guardians: The Owls of Ga’Hoole 3D [2010 мультфильм HDRip] Anaglyph red'cyan slaventi-69 Скачать
1 | 0

28-11-2019 20:33  

Отключить вcю реклaмy на сайте

    Дорогой пользователь! Огромная просьба, поблагодарите релизера, оцените раздачу и оставьте свои комментарий, если Вы скачали Легенды ночных стражей через торрент бесплатно!
    Комментировать посты могут только пользователи прошедшие не сложную регистрацию
    Показать сообщения:    

    Легенды ночных стражей через торрент
    Скачать бесплатно Легенды ночных стражей
    Легенды ночных стражей скачать торрент
    Легенды ночных стражей смотреть онлайн
    Cкачать фильм Легенды ночных стражей бесплатно
    Легенды ночных стражей скачать торрент в хорошем качестве
    Легенды ночных стражей смотреть онлайн бесплатно в хорошем качестве


    Вы не можете начинать темы
    Вы не можете отвечать на сообщения
    Вы не можете редактировать свои сообщения
    Вы не можете удалять свои сообщения
    Вы не можете голосовать в опросах
    Вы не можете прикреплять файлы к сообщениям
    Вы можете скачивать файлы