Достать ножи: Стеклянная луковица

MVO

Добыча

Дубляж

Уэнсдэй

1 сезон

Тор

Дубляж

13 клиническая

1 сезон

Жестокая ночь

MVO

Одни из нас

1 сезон

Deluxe

pack

Рекомендуем

30

Пиратка

ВАЖНО

ВАЖНО

Ghostwire

Пиратка

jed

RePack

nioh2

RePack

RDR2

RePack

NEED FOR SPEED™ PAYBACK

RePack

скачать торрент

Кинопоиск HD

Острые козырьки 6 сезон

6 сезон

FAR CRY 6

RePack

скачать торрент

Лицензия

скачать торрент

MVO

1

1 сезон

скачать торрент

1 сезон

скачать торрент

Лицензия

  

30 Seconds to Mars - Видеография [2002 - 2013 г., Alternative, Progressive Rock]

30 Seconds to Mars - Видеография через торрент pb.wtf

Размер: 4.57 GB | Добавлен: 9 лет 3 мес. назад | Торрент скачан:16 раз
| Скачать | Поддержите нас   

26-02-2011 21:10 30 Seconds to Mars - Видеография Скачать торрент  

30 Seconds to Mars - Видеография [2002 - 2013 г.]

Внимание! Раздача обновлена 29.10.2013! Просьба перекачать раздачу
Добавлено:

  • 2013 - City Of Angels (Official video)
    Добавлено:
    • 2013 - City Of Angels (Official Lyric Video)
    Добавлено:
    • 2013 - Do Or Die
    Заменено:
    • 2013 - Up In The Air на HDTV 1080i (Присутствует цензура)
    Добавлено:
    • 2011 - This is War (Short version)
    • 2013 - Up in the air
    Заменено:

    2008 - A Beautiful Lie (Extended Version) на HDTV 1080i

    2009 - Kings & Queens (Full Version) на HDTV 1080i

    2010 - Closer to the Edge на HDTV 1080i

    2011 - Hurricane Censored Director's cut на 720p
  • Формат: VOB
    Размер файла: 138 MiB
    Длительность: 4mn 7s
    Видео: MPEG 2, 720x480 (4/3), 29.970 fps, 9 000 Kbps (0.398 bit/pixel)
    Аудио: AC-3, 48.0 KHz, 2 ch, 384 Kbps, CBR



    General
    Complete name : F:video30STMРаздачи30 Seconds to Mars VideographyCapricorn (A Brand New Name) - DD2.0-ETV-NTSC.VOB
    Format : MPEG-PS
    File size : 138 MiB
    Duration : 4mn 7s
    Overall bit rate mode : Variable
    Overall bit rate : 4 692 Kbps

    Video
    ID : 224 (0xE0)
    Format : MPEG Video
    Format version : Version 2
    Format profile : [email protected]
    Format settings, BVOP : Yes
    Format settings, Matrix : Default
    Format settings, GOP : M=3, N=10
    Duration : 4mn 7s
    Bit rate mode : Variable
    Maximum bit rate : 9 000 Kbps
    Width : 720 pixels
    Height : 480 pixels
    Display aspect ratio : 4:3
    Frame rate : 29.970 fps
    Standard : NTSC
    Color space : YUV
    Chroma subsampling : 4:2:0
    Bit depth : 8 bits
    Scan type : Interlaced
    Scan order : Top Field First
    Compression mode : Lossy
    Color primaries : BT.601 NTSC
    Transfer characteristics : BT.601
    Matrix coefficients : BT.601

    Audio #1
    ID : 189 (0xBD)-128 (0x80)
    Format : AC-3
    Format/Info : Audio Coding 3
    Mode extension : CM (complete main)
    Format settings, Endianness : Big
    Muxing mode : DVD-Video
    Duration : 4mn 7s
    Bit rate mode : Constant
    Bit rate : 384 Kbps
    Channel(s) : 2 channels
    Channel positions : Front: L R
    Sampling rate : 48.0 KHz
    Bit depth : 16 bits
    Compression mode : Lossy
    Delay relative to video : 30ms
    Stream size : 11.3 MiB (8%)
    Формат: VOB
    Размер файла: 291 MiB
    Длительность: 4mn 40s
    Видео: MPEG 2, 720x480 (4/3), 29.970 fps, 9 800 Kbps (0.657 bit/pixel)
    Аудио: PCM, 48.0 KHz, 2 ch, 1 536 Kbps, CBR



    General
    Complete name : F:video30STMРаздачи30 Seconds to Mars VideographyEdge Of The Earth.VOB
    Format : MPEG-PS
    File size : 291 MiB
    Duration : 4mn 40s
    Overall bit rate mode : Variable
    Overall bit rate : 8 688 Kbps

    Video
    ID : 224 (0xE0)
    Format : MPEG Video
    Format version : Version 2
    Format profile : [email protected]
    Format settings, BVOP : Yes
    Format settings, Matrix : Custom
    Duration : 4mn 40s
    Bit rate mode : Variable
    Bit rate : 6 979 Kbps
    Maximum bit rate : 9 800 Kbps
    Width : 720 pixels
    Height : 480 pixels
    Display aspect ratio : 4:3
    Frame rate : 29.970 fps
    Standard : NTSC
    Color space : YUV
    Chroma subsampling : 4:2:0
    Bit depth : 8 bits
    Scan type : Interlaced
    Scan order : Top Field First
    Compression mode : Lossy
    Bits/(Pixel*Frame) : 0.674
    Stream size : 233 MiB (80%)

    Audio
    ID : 189 (0xBD)-160 (0xA0)
    Format : PCM
    Format settings, Endianness : Big
    Format settings, Sign : Signed
    Muxing mode : DVD-Video
    Duration : 4mn 40s
    Bit rate mode : Constant
    Bit rate : 1 536 Kbps
    Channel(s) : 2 channels
    Sampling rate : 48.0 KHz
    Bit depth : 16 bits
    Stream size : 51.4 MiB (18%)
    Формат: VOB
    Формат
    Размер файла: 163 MiB
    Длительность: 3mn 9s
    Видео: MPEG 2, 720x480 (4/3), 29.970 fps, 8 000 Kbps (0.523 bit/pixel)
    Аудио: PCM, 48.0 KHz, 2 ch, 1 536 Kbps, CBR



    General
    Complete name : F:video30STMРаздачи30 Seconds to Mars VideographyAttack.vob
    Format : MPEG-PS
    File size : 163 MiB
    Duration : 3mn 9s
    Overall bit rate mode : Variable
    Overall bit rate : 7 235 Kbps
    Writing library : encoded by TMPGEnc 3.0 XPress Version. 3.0.4.24

    Video
    ID : 224 (0xE0)
    Format : MPEG Video
    Format version : Version 2
    Format profile : [email protected]
    Format settings, BVOP : Yes
    Format settings, Matrix : Custom
    Format settings, GOP : M=3, N=16
    Duration : 3mn 9s
    Bit rate mode : Variable
    Bit rate : 5 555 Kbps
    Maximum bit rate : 8 000 Kbps
    Width : 720 pixels
    Height : 480 pixels
    Display aspect ratio : 4:3
    Frame rate : 29.970 fps
    Standard : NTSC
    Color space : YUV
    Chroma subsampling : 4:2:0
    Bit depth : 8 bits
    Scan type : Interlaced
    Scan order : Top Field First
    Compression mode : Lossy
    Bits/(Pixel*Frame) : 0.536
    Stream size : 125 MiB (77%)
    Writing library : TMPGEnc / 3.0 XPress Version. 3.0.4.24 3.0 XPress Version. 3.0.4.24
    Color primaries : BT.601 PAL
    Transfer characteristics : BT.470 System B, BT.470 System G
    Matrix coefficients : FCC 73.682

    Audio
    ID : 189 (0xBD)-160 (0xA0)
    Format : PCM
    Format settings, Endianness : Big
    Format settings, Sign : Signed
    Muxing mode : DVD-Video
    Duration : 3mn 9s
    Bit rate mode : Constant
    Bit rate : 1 536 Kbps
    Channel(s) : 2 channels
    Sampling rate : 48.0 KHz
    Bit depth : 16 bits
    Stream size : 34.7 MiB (21%)
    Формат: VOB
    Размер файла: 273 MiB
    Длительность: 4mn 55s
    Видео: MPEG 2, 720x480 (4/3), 29.970 fps, 8 000 Kbps (0.572 bit/pixel)
    Аудио: PCM, 48.0 KHz, 2 ch, 1 536 Kbps, CBR




    General
    Complete name : F:video30STMРаздачи30 Seconds to Mars VideographyThe Kill.vob
    Format : MPEG-PS
    File size : 273 MiB
    Duration : 4mn 55s
    Overall bit rate mode : Variable
    Overall bit rate : 7 766 Kbps

    Video
    ID : 224 (0xE0)
    Format : MPEG Video
    Format version : Version 2
    Format profile : [email protected]
    Format settings, BVOP : Yes
    Format settings, Matrix : Custom
    Format settings, GOP : M=3, N=15
    Duration : 4mn 55s
    Bit rate mode : Variable
    Bit rate : 6 075 Kbps
    Maximum bit rate : 8 000 Kbps
    Width : 720 pixels
    Height : 480 pixels
    Display aspect ratio : 4:3
    Frame rate : 29.970 fps
    Standard : NTSC
    Color space : YUV
    Chroma subsampling : 4:2:0
    Bit depth : 8 bits
    Scan type : Interlaced
    Scan order : Top Field First
    Compression mode : Lossy
    Bits/(Pixel*Frame) : 0.587
    Stream size : 214 MiB (78%)

    Audio
    ID : 189 (0xBD)-160 (0xA0)
    Format : PCM
    Format settings, Endianness : Big
    Format settings, Sign : Signed
    Muxing mode : DVD-Video
    Duration : 4mn 54s
    Bit rate mode : Constant
    Bit rate : 1 536 Kbps
    Channel(s) : 2 channels
    Sampling rate : 48.0 KHz
    Bit depth : 16 bits
    Delay relative to video : -66ms
    Stream size : 54.0 MiB (20%)
    Формат: VOB
    Размер файла: 840 MiB
    Длительность: 13mn 31s
    Видео: MPEG 2, 720x480 (4/3), 29.970 fps, 7 000 Kbps (0.658 bit/pixel)
    Аудио: PCM, 48.0 KHz, 2 ch, 1 536 Kbps, CBR




    General
    Complete name : F:video30STMРаздачи30 Seconds to Mars VideographyFrom Yesterday (Full Version).vob
    Format : MPEG-PS
    File size : 840 MiB
    Duration : 13mn 31s
    Overall bit rate : 8 693 Kbps

    Video
    ID : 224 (0xE0)
    Format : MPEG Video
    Format version : Version 2
    Format profile : [email protected]
    Format settings, BVOP : Yes
    Format settings, Matrix : Default
    Format settings, GOP : M=3, N=15
    Duration : 13mn 30s
    Bit rate : 7 000 Kbps
    Width : 720 pixels
    Height : 480 pixels
    Display aspect ratio : 4:3
    Frame rate : 29.970 fps
    Standard : NTSC
    Color space : YUV
    Chroma subsampling : 4:2:0
    Bit depth : 8 bits
    Scan type : Interlaced
    Scan order : Bottom Field First
    Compression mode : Lossy
    Bits/(Pixel*Frame) : 0.676
    Stream size : 675 MiB (80%)

    Audio
    ID : 189 (0xBD)-160 (0xA0)
    Format : PCM
    Format settings, Endianness : Big
    Format settings, Sign : Signed
    Muxing mode : DVD-Video
    Duration : 13mn 31s
    Bit rate mode : Constant
    Bit rate : 1 536 Kbps
    Channel(s) : 2 channels
    Sampling rate : 48.0 KHz
    Bit depth : 16 bits
    Delay relative to video : -67ms
    Stream size : 149 MiB (18%)
    Качество: HDTV
    Формат файла: TS
    Продолжительность: 5mn 48s
    Видео кодек: H.264
    Аудио кодек: AC3
    Видео: H.264 1920x1080i 16:9 8.778Mbps 29.970fps
    Аудио: AC3 384kbps 48kHz 2ch.
    General
    ID : 21 (0x15)
    Complete name : F:video30STMРаздачи30 Seconds to Mars Videography30 Seconds To Mars - A Beautiful Lie ( VH1HD ) 1080i.ts
    Format : MPEG-TS
    File size : 409 MiB
    Duration : 5mn 48s
    Overall bit rate : 9 844 Kbps

    Video
    ID : 5408 (0x1520)
    Menu ID : 526 (0x20E)
    Format : AVC
    Format/Info : Advanced Video Codec
    Format profile : [email protected]
    Format settings, CABAC : Yes
    Format settings, ReFrames : 2 frames
    Format settings, GOP : M=3, N=30
    Codec ID : 27
    Duration : 5mn 48s
    Bit rate : 8 970 Kbps
    Width : 1 920 pixels
    Height : 1 080 pixels
    Display aspect ratio : 16:9
    Frame rate : 29.970 fps
    Color space : YUV
    Chroma subsampling : 4:2:0
    Bit depth : 8 bits
    Scan type : MBAFF
    Bits/(Pixel*Frame) : 0.144
    Stream size : 373 MiB (91%)
    Color primaries : BT.709
    Transfer characteristics : BT.709
    Matrix coefficients : BT.709

    Audio
    ID : 5410 (0x1522)
    Menu ID : 526 (0x20E)
    Format : AC-3
    Format/Info : Audio Coding 3
    Mode extension : CM (complete main)
    Format settings, Endianness : Big
    Codec ID : 129
    Duration : 5mn 48s
    Bit rate mode : Constant
    Bit rate : 384 Kbps
    Channel(s) : 2 channels
    Channel positions : Front: L R
    Sampling rate : 48.0 KHz
    Bit depth : 16 bits
    Compression mode : Lossy
    Delay relative to video : 29ms
    Stream size : 15.9 MiB (4%)
    Качество: HDTV
    Формат файла: TS
    Продолжительность: 05:41
    Размер файла: 324 MiB
    Видео: AVC 1920x1080 (16:9), 7177 Kbps, 25.000 fps
    Аудио: AC3, 384 kbps, 6 channels, 48 KHz
    General
    ID : 6 (0x6)
    Complete name : F:video30STMРаздачи30 Seconds to Mars Videography30 Seconds To Mars - Kings And Queens.ts
    Format : MPEG-TS
    File size : 324 MiB
    Duration : 5mn 41s
    Overall bit rate : 7 958 Kbps

    Video
    ID : 326 (0x146)
    Menu ID : 1 (0x1)
    Format : AVC
    Format/Info : Advanced Video Codec
    Format profile : [email protected]
    Format settings, CABAC : Yes
    Format settings, ReFrames : 4 frames
    Codec ID : 27
    Duration : 5mn 41s
    Bit rate : 7 177 Kbps
    Width : 1 920 pixels
    Height : 1 080 pixels
    Display aspect ratio : 16:9
    Frame rate : 25.000 fps
    Color space : YUV
    Chroma subsampling : 4:2:0
    Bit depth : 8 bits
    Scan type : Interlaced
    Scan order : Top Field First
    Bits/(Pixel*Frame) : 0.138
    Stream size : 292 MiB (90%)
    Language : English
    Color primaries : BT.709
    Transfer characteristics : BT.709
    Matrix coefficients : BT.709

    Audio
    ID : 406 (0x196)
    Menu ID : 1 (0x1)
    Format : AC-3
    Format/Info : Audio Coding 3
    Mode extension : CM (complete main)
    Format settings, Endianness : Big
    Codec ID : 129
    Duration : 5mn 41s
    Bit rate mode : Constant
    Bit rate : 384 Kbps
    Channel(s) : 6 channels
    Channel positions : Front: L C R, Side: L R, LFE
    Sampling rate : 48.0 KHz
    Bit depth : 16 bits
    Compression mode : Lossy
    Delay relative to video : 59ms
    Stream size : 15.6 MiB (5%)
    Language : English
    Качество: HDTV
    Формат файла: TS
    Продолжительность: 04:51
    Размер файла: 335 MiB
    Видео: AVC 1920x1080 16:9 8796 Kbps 25.000 fps
    Аудио: AC3 384 kbps 2 channels 48 KHz
    General
    ID : 6 (0x6)
    Complete name : F:video30STMРаздачи30 Seconds to Mars Videography30 Seconds To Mars - Closer To The Edge.ts
    Format : MPEG-TS
    File size : 335 MiB
    Duration : 4mn 51s
    Overall bit rate : 9 661 Kbps

    Video
    ID : 326 (0x146)
    Menu ID : 1 (0x1)
    Format : AVC
    Format/Info : Advanced Video Codec
    Format profile : [email protected]
    Format settings, CABAC : Yes
    Format settings, ReFrames : 4 frames
    Codec ID : 27
    Duration : 4mn 51s
    Bit rate : 8 796 Kbps
    Width : 1 920 pixels
    Height : 1 080 pixels
    Display aspect ratio : 16:9
    Frame rate : 25.000 fps
    Standard : Component
    Color space : YUV
    Chroma subsampling : 4:2:0
    Bit depth : 8 bits
    Scan type : Interlaced
    Scan order : Top Field First
    Bits/(Pixel*Frame) : 0.170
    Stream size : 305 MiB (91%)
    Language : English
    Color primaries : BT.709
    Transfer characteristics : BT.709
    Matrix coefficients : BT.709

    Audio
    ID : 406 (0x196)
    Menu ID : 1 (0x1)
    Format : AC-3
    Format/Info : Audio Coding 3
    Mode extension : CM (complete main)
    Format settings, Endianness : Big
    Codec ID : 129
    Duration : 4mn 51s
    Bit rate mode : Constant
    Bit rate : 384 Kbps
    Channel(s) : 2 channels
    Channel positions : Front: L R
    Sampling rate : 48.0 KHz
    Bit depth : 16 bits
    Compression mode : Lossy
    Delay relative to video : 101ms
    Stream size : 13.3 MiB (4%)
    Language : English
    Внимание! Полная версия с цензурой!! Формат: mov
    Размер файла: 580 MiB
    Длительность: 13mn 7s
    Видео: AVC, 1280x720 (16/9), 23.976 fps, 5 825 Kbps (0.264 bit/pixel)
    Аудио: AAC LC, 48.0 KHz, 2 ch, 324 Kbps, CBR
    скриншот   скриншот   скриншот  
    General
    Complete name : F:video30STMРаздачи30 Seconds to Mars Videography30 Seconds to Mars - Hurricane (Censored).mov
    Format : MPEG-4
    Format profile : QuickTime
    Codec ID : qt
    File size : 580 MiB
    Duration : 13mn 7s
    Overall bit rate : 6 178 Kbps
    Encoded date : UTC 2010-12-04 02:26:47
    Tagged date : UTC 2010-12-04 02:27:07
    Writing library : Apple QuickTime
    Media/UUID : BF696879-EB25-485A-9801-1852CF55D4DB
    Media/History/UUID : 95785CDF-E158-46B0-A29C-7449ABC42CB8

    Video
    ID : 1
    Format : AVC
    Format/Info : Advanced Video Codec
    Format profile : [email protected]
    Format settings, CABAC : No
    Format settings, ReFrames : 2 frames
    Codec ID : avc1
    Codec ID/Info : Advanced Video Coding
    Duration : 13mn 7s
    Source duration : 13mn 10s
    Bit rate : 5 848 Kbps
    Width : 1 248 pixels
    Original width : 1 280 pixels
    Height : 702 pixels
    Original height : 720 pixels
    Display aspect ratio : 16:9
    Frame rate mode : Constant
    Frame rate : 23.976 fps
    Color space : YUV
    Chroma subsampling : 4:2:0
    Bit depth : 8 bits
    Scan type : Progressive
    Bits/(Pixel*Frame) : 0.278
    Stream size : 549 MiB (95%)
    Source stream size : 549 MiB (95%)
    Language : English
    Encoded date : UTC 2010-12-04 02:17:29
    Tagged date : UTC 2010-12-04 02:27:07
    Color primaries : BT.709
    Transfer characteristics : BT.709
    Matrix coefficients : BT.709

    Audio
    ID : 2
    Format : AAC
    Format/Info : Advanced Audio Codec
    Format profile : LC
    Codec ID : 40
    Duration : 13mn 7s
    Source duration : 13mn 7s
    Bit rate mode : Constant
    Bit rate : 320 Kbps
    Channel(s) : 2 channels
    Channel positions : Front: L R
    Sampling rate : 48.0 KHz
    Compression mode : Lossy
    Delay relative to video : 3s 155ms
    Stream size : 30.4 MiB (5%)
    Source stream size : 30.4 MiB (5%)
    Language : English
    Encoded date : UTC 2010-12-04 02:17:29
    Tagged date : UTC 2010-12-04 02:27:07

    Menu
    ID : 3
    Duration : 13mn 7s
    Language : English
    Encoded date : UTC 2010-12-04 02:18:16
    Tagged date : UTC 2010-12-04 02:27:07

    Качество: HDTV
    Размер файла:515 MiB
    Формат файла: TS
    Видео: MPEG4 Video (H264) 1920x1080i 29.97fps 14.8Mbps
    Аудио: Dolby AC3 48000Hz stereo 384kbps
    General
    ID : 1 (0x1)
    Complete name : F:video30STMРаздачи30 Seconds to Mars Videography30 Seconds to Mars - This Is War (MTVHD Brazil 1080i AC3 AVC-RiCO).ts
    Format : MPEG-TS
    File size : 515 MiB
    Duration : 4mn 33s
    Overall bit rate : 15.8 Mbps
    Maximum Overall bit rate : 35.5 Mbps

    Video
    ID : 4113 (0x1011)
    Menu ID : 1 (0x1)
    Format : AVC
    Format/Info : Advanced Video Codec
    Format profile : [email protected]
    Format settings, CABAC : Yes
    Format settings, ReFrames : 4 frames
    Codec ID : 27
    Duration : 4mn 33s
    Bit rate : 14.6 Mbps
    Width : 1 920 pixels
    Height : 1 080 pixels
    Display aspect ratio : 16:9
    Frame rate : 29.970 fps
    Color space : YUV
    Chroma subsampling : 4:2:0
    Bit depth : 8 bits
    Scan type : Interlaced
    Scan order : Bottom Field First
    Bits/(Pixel*Frame) : 0.235
    Stream size : 477 MiB (93%)
    Color primaries : BT.709
    Transfer characteristics : BT.709
    Matrix coefficients : BT.709

    Audio
    ID : 4352 (0x1100)
    Menu ID : 1 (0x1)
    Format : AC-3
    Format/Info : Audio Coding 3
    Mode extension : CM (complete main)
    Format settings, Endianness : Big
    Codec ID : 129
    Duration : 4mn 32s
    Bit rate mode : Constant
    Bit rate : 384 Kbps
    Channel(s) : 2 channels
    Channel positions : Front: L R
    Sampling rate : 48.0 KHz
    Bit depth : 16 bits
    Compression mode : Lossy
    Delay relative to video : 16ms
    Stream size : 12.5 MiB (2%)
    Language : English
    Внимание! Присутствует цензураФормат: TS
    Размер файла: 446 MB
    Длительность: 06:09
    Видео: MPEG-2, 1920x1080i, 29.97 fps, 9042 Kбит
    Аудио: AC-3, 48.0 KHz, 384 Kbps, 6 Ch.
    Общее
    Идентификатор : 1 (0x1)
    Полное имя : G:video30STMРаздачи30 Seconds to Mars VideographyThirty Seconds To Mars - Up In The Air (MUCHHD-1080i-AmazonBoy).ts
    Формат : MPEG-TS
    Размер файла : 446 Мбайт
    Продолжительность : 6 м. 9 с.
    Режим общего битрейта : Переменный
    Общий поток : 10,1 Мбит/сек
    Максимальный общий битрейт : 35,5 Мбит/сек

    Видео
    Идентификатор : 4113 (0x1011)
    Идентификатор меню : 1 (0x1)
    Формат : MPEG Video
    Версия формата : Version 2
    Профиль формата : [email protected]
    Параметр BVOP формата : Да
    Параметр матрицы формата : Выборочная
    Параметр GOP формата : Variable
    Идентификатор кодека : 2
    Продолжительность : 6 м. 9 с.
    Вид битрейта : Переменный
    Битрейт : 9240 Кбит/сек
    Максимальный битрейт : 24,0 Мбит/сек
    Ширина : 1920 пикселей
    Высота : 1080 пикселей
    Соотношение сторон : 16:9
    Частота кадров : 29,970 кадров/сек
    Цветовое пространство : YUV
    Субдискретизация насыщенности : 4:2:0
    Битовая глубина : 8 бит
    Тип развёртки : Чересстрочная
    Порядок развёртки : Верхнее поле первое
    Метод сжатия : С потерями
    Бит/(Пиксели*Кадры) : 0.149
    Временной код первого кадра : 00:00:00;00
    Оригинал временного кода : Group of pictures header
    Размер потока : 407 Мбайт (91%)

    Аудио
    Идентификатор : 4352 (0x1100)
    Идентификатор меню : 1 (0x1)
    Формат : AC-3
    Формат/Информация : Audio Coding 3
    Расширение режима : CM (complete main)
    Параметр Endianness формата : Big
    Идентификатор кодека : 129
    Продолжительность : 6 м. 9 с.
    Вид битрейта : Постоянный
    Битрейт : 384 Кбит/сек
    Каналы : 6 каналов
    Расположение каналов : Front: L C R, Side: L R, LFE
    Частота : 48,0 КГц
    Битовая глубина : 16 бит
    Метод сжатия : С потерями
    Размер потока : 16,9 Мбайт (4%)
    Язык : English
    Формат: mp4
    Размер файла: 220 Мбайт
    Длительность: 7 м. 2 с.
    Видео: AVC, 1920x1080 (16/9), 29.970 fps, 4174 Кбит/сек (0.084 bit/pixel)
    Аудио: AAC, 44.1 KHz, 2 ch, 192 Кбит/сек
    Общее
    Полное имя : G:video30STMРаздачи30 Seconds to Mars VideographyThirty Seconds To Mars - Do Or Die.mp4
    Формат : MPEG-4
    Профиль формата : Base Media / Version 2
    Идентификатор кодека : mp42
    Размер файла : 220 Мбайт
    Продолжительность : 7 м. 2 с.
    Режим общего битрейта : Переменный
    Общий поток : 4369 Кбит/сек
    Дата кодирования : UTC 2013-08-02 02:56:41
    Дата пометки : UTC 2013-08-02 02:56:41
    gsst : 0
    gstd : 422230
    gssd : B4A7D6E2AMH1375797475146859
    gshh : r10---sn-n8v7lne6.c.youtube.com

    Видео
    Идентификатор : 1
    Формат : AVC
    Формат/Информация : Advanced Video Codec
    Профиль формата : [email protected]
    Параметр CABAC формата : Да
    Параметр ReFrames формата : 1 кадр
    Идентификатор кодека : avc1
    Идентификатор кодека/Информация : Advanced Video Coding
    Продолжительность : 7 м. 2 с.
    Битрейт : 4174 Кбит/сек
    Максимальный битрейт : 28,7 Мбит/сек
    Ширина : 1920 пикселей
    Высота : 1080 пикселей
    Соотношение сторон : 16:9
    Режим частоты кадров : Постоянный
    Частота кадров : 23,976 кадра/сек
    Цветовое пространство : YUV
    Субдискретизация насыщенности : 4:2:0
    Битовая глубина : 8 бит
    Тип развёртки : Прогрессивная
    Бит/(Пиксели*Кадры) : 0.084
    Размер потока : 210 Мбайт (96%)
    Дата пометки : UTC 2013-08-02 02:57:01

    Аудио
    Идентификатор : 2
    Формат : AAC
    Формат/Информация : Advanced Audio Codec
    Профиль формата : LC
    Идентификатор кодека : 40
    Продолжительность : 7 м. 2 с.
    Вид битрейта : Переменный
    Битрейт : 192 Кбит/сек
    Максимальный битрейт : 201 Кбит/сек
    Каналы : 2 канала
    Расположение каналов : Front: L R
    Частота : 44,1 КГц
    Метод сжатия : С потерями
    Размер потока : 9,66 Мбайт (4%)
    Заголовок : IsoMedia File Produced by Google, 5-11-2011
    Дата кодирования : UTC 2013-08-02 02:56:56
    Дата пометки : UTC 2013-08-02 02:57:01
    Формат: mp4
    Размер файла: 46 Мбайт
    Длительность: 5mn 2s
    Видео: AVC, 1280x720 (16/9), 23.976 fps, 1 082 Кбит/сек (0.049 bit/pixel)
    Аудио: AAC, 44.1 KHz, 2 ch, 192 Кбит/сек
    скриншот   скриншот   скриншот   скриншот   скриншот   скриншот  
    General
    Complete name : G:video30STMРаздачи30 Seconds to Mars VideographyThirty Seconds To Mars - City Of Angels (Lyric Video).mp4
    Format : MPEG-4
    Format profile : Base Media / Version 2
    Codec ID : mp42
    File size : 46.0 MiB
    Duration : 5mn 2s
    Overall bit rate mode : Variable
    Overall bit rate : 1 276 Kbps
    Encoded date : UTC 2013-08-21 22:32:17
    Tagged date : UTC 2013-08-21 22:32:17
    gsst : 0
    gstd : 302230
    gssd : B4A7D6EE7HH1377257799085363
    gshh : r7---sn-n8v7sn7d.c.youtube.com

    Video
    ID : 1
    Format : AVC
    Format/Info : Advanced Video Codec
    Format profile : [email protected]
    Format settings, CABAC : Yes
    Format settings, ReFrames : 1 frame
    Format settings, GOP : M=1, N=60
    Codec ID : avc1
    Codec ID/Info : Advanced Video Coding
    Duration : 5mn 2s
    Bit rate : 1 082 Kbps
    Maximum bit rate : 4 981 Kbps
    Width : 1 280 pixels
    Height : 720 pixels
    Display aspect ratio : 16:9
    Frame rate mode : Constant
    Frame rate : 23.976 fps
    Color space : YUV
    Chroma subsampling : 4:2:0
    Bit depth : 8 bits
    Scan type : Progressive
    Bits/(Pixel*Frame) : 0.049
    Stream size : 39.0 MiB (85%)
    Tagged date : UTC 2013-08-21 22:32:24

    Audio
    ID : 2
    Format : AAC
    Format/Info : Advanced Audio Codec
    Format profile : LC
    Codec ID : 40
    Duration : 5mn 2s
    Bit rate mode : Variable
    Bit rate : 192 Kbps
    Maximum bit rate : 203 Kbps
    Channel(s) : 2 channels
    Channel positions : Front: L R
    Sampling rate : 44.1 KHz
    Compression mode : Lossy
    Stream size : 6.92 MiB (15%)
    Title : IsoMedia File Produced by Google, 5-11-2011
    Encoded date : UTC 2013-08-21 22:32:21
    Tagged date : UTC 2013-08-21 22:32:24
    Формат: mp4
    Размер файла: 100 MB
    Длительность: 11mn 32s
    Видео: AVC, 1280x720 (16:9), 23.976 fps, 1 020 Kbps (0.046 bit/pixel)
    Аудио: AAC LC, 44.1 KHz, 2 ch, 192 Kbps, VBR
    General
    Complete name : 30 Seconds to Mars Videography | Thirty Seconds To Mars - City Of Angels.mp4
    Format : MPEG-4
    Format profile : Base Media / Version 2
    Codec ID : mp42
    File size : 100 MiB
    Duration : 11mn 32s
    Overall bit rate mode : Variable
    Overall bit rate : 1 214 Kbps
    Encoded date : UTC 2013-10-27 03:24:46
    Tagged date : UTC 2013-10-27 03:24:46
    gsst : 0
    gstd : 692951
    gssd : BADC23AABHH1383067101214905
    gshh : r11---svo02s11.c.youtube.com

    Video
    ID : 1
    Format : AVC
    Format/Info : Advanced Video Codec
    Format profile : [email protected]
    Format settings, CABAC : Yes
    Format settings, ReFrames : 1 frame
    Format settings, GOP : M=1, N=60
    Codec ID : avc1
    Codec ID/Info : Advanced Video Coding
    Duration : 11mn 32s
    Bit rate : 1 020 Kbps
    Maximum bit rate : 4 184 Kbps
    Width : 1 280 pixels
    Height : 720 pixels
    Display aspect ratio : 16:9
    Frame rate mode : Constant
    Frame rate : 23.976 fps
    Color space : YUV
    Chroma subsampling : 4:2:0
    Bit depth : 8 bits
    Scan type : Progressive
    Bits/(Pixel*Frame) : 0.046
    Stream size : 84.2 MiB (84%)
    Tagged date : UTC 2013-10-27 03:24:53

    Audio
    ID : 2
    Format : AAC
    Format/Info : Advanced Audio Codec
    Format profile : LC
    Codec ID : 40
    Duration : 11mn 32s
    Bit rate mode : Variable
    Bit rate : 192 Kbps
    Maximum bit rate : 202 Kbps
    Channel(s) : 2 channels
    Channel positions : Front: L R
    Sampling rate : 44.1 KHz
    Compression mode : Lossy
    Stream size : 15.9 MiB (16%)
    Title : IsoMedia File Produced by Google, 5-11-2011
    Encoded date : UTC 2013-10-27 03:24:50
    Tagged date : UTC 2013-10-27 03:24:53



    Скачать 30 Seconds to Mars - Видеография через торрент https://pic1.kartinco.top/images/23/icb19yqm1w.jpg Скачать, смотреть онлайн 30 Seconds to Mars - Видеография [2002 - 2013 г., Alternative, Progressive Rock] бесплантно в хорошем качестве 30 Seconds to Mars - Видеография [2002 - 2013 г.] Внимание! Раздача обновлена 29.10.2013! Просьба перекачать раздачу Добавлено:2013 - ... 9.9 10 10
    Info! Золотая раздача, скачанное не засчитывается.
    Торрент: Зарегистрирован [2013-10-29 17:46] · скачан: 16 раз
    Статус: √ проверено
    Размер: 4.57 GB
    Как cкачать? Как скачать 30 Seconds to Mars - Видеография через торрент | UTorrent




    Последний раз редактировалось: Messa-fan (2013-10-29 17:49), всего редактировалось 29 раз(а)

    28-11-2019 20:33  


    Отключить вcю реклaмy на сайте, в т.ч. и в плеере онлайн просмотра!

    25-06-2011 22:56 30 Seconds to Mars - Видеография Скачать торрент  

    Спасибо большое, шикарная группа!!



    01-07-2013 21:03 30 Seconds to Mars - Видеография Скачать торрент  

    Внимание! Раздача обновлена 01.07.2013! Просьба перекачать раздачу



    02-07-2013 17:52 30 Seconds to Mars - Видеография Скачать торрент  

    Автор! Станьте на раздачу.



    03-07-2013 06:46 30 Seconds to Mars - Видеография Скачать торрент  

    Надеюсь, что раздающий не в глухом запое! :druncp: :druncp:



    03-07-2013 13:25 30 Seconds to Mars - Видеография Скачать торрент  

    Lexxy
    sdolotov
    Прощу прощения, была авария на магистральном канале - половина района без интернета 2 дня сидело, сейчас всё починили.



    03-07-2013 14:48 30 Seconds to Mars - Видеография Скачать торрент  




    06-08-2013 14:29 30 Seconds to Mars - Видеография Скачать торрент  

    Внимание! Раздача обновлена 06.08.2013! Просьба перекачать раздачу



    23-08-2013 16:07 30 Seconds to Mars - Видеография Скачать торрент  

    Внимание! Раздача обновлена 23.08.2013! Просьба перекачать раздачу



    29-10-2013 17:47 30 Seconds to Mars - Видеография Скачать торрент  

    Внимание! Раздача обновлена 29.10.2013! Просьба перекачать раздачу Добавлено:

  • 2013 - City Of Angels (Official video)



    • Дорогой пользователь! Огромная просьба, поблагодарите релизера, оцените раздачу и оставьте свои комментарий, если Вы скачали 30 Seconds to Mars - Видеография через торрент бесплатно!!
      Комментировать посты могут только пользователи прошедшие не сложную регистрацию
      Показать сообщения:    


      30 Seconds to Mars - Видеография через торрент
      Скачать бесплатно 30 Seconds to Mars - Видеография
      30 Seconds to Mars - Видеография скачать торрент
      30 Seconds to Mars - Видеография смотреть онлайн
      Cкачать фильм 30 Seconds to Mars - Видеография бесплатно
      30 Seconds to Mars - Видеография скачать торрент в хорошем качестве
      30 Seconds to Mars - Видеография смотреть онлайн бесплатно в хорошем качестве
      Вы не можете начинать темы
      Вы не можете отвечать на сообщения
      Вы не можете редактировать свои сообщения
      Вы не можете удалять свои сообщения
      Вы не можете голосовать в опросах
      Вы не можете прикреплять файлы к сообщениям
      Вы можете скачивать файлы
      30 Seconds to Mars - Видеография [2002 - 2013 г., Alternative, Progressive Rock] смотреть онлайн, скачать торрент picoco.icu