Достать ножи: Стеклянная луковица

MVO

Добыча

Дубляж

Уэнсдэй

1 сезон

Тор

Дубляж

13 клиническая

1 сезон

Жестокая ночь

MVO

Одни из нас

1 сезон

Deluxe

pack

Рекомендуем

30

Пиратка

ВАЖНО

ВАЖНО

Ghostwire

Пиратка

jed

RePack

nioh2

RePack

RDR2

RePack

NEED FOR SPEED™ PAYBACK

RePack

скачать торрент

Кинопоиск HD

Острые козырьки 6 сезон

6 сезон

FAR CRY 6

RePack

скачать торрент

Лицензия

скачать торрент

MVO

1

1 сезон

скачать торрент

1 сезон

скачать торрент

Лицензия

  

Хэдшот / Сезон: 1 / Серии: 1-7 из 8 (Владимир Битоков) [2022, Триллер, фантастика, драма, WEBRip]

Хэдшот через торрент pb.wtf

Раздают: 2 [ 28 KB/s ] Качают: 2 [ 0 KB/s ]
Размер: 5.8 GB | Добавлен: 2 д. 4 ч. назад | Торрент скачан:11 раз
Смотреть онлайн | Скачать | Поддержите нас   

02-01-2023 03:53 Хэдшот Скачать торрент  

Хэдшот
Год выпуска: 2022
Страна: Россия
Выпущено: «Нон-Стоп Продакшн»
Жанр: Триллер, фантастика, драма
Продолжительность: ~ 00:45:00 серия
Перевод: Не требуется
Субтитры: Русские

Режиссер: Владимир Битоков



В ролях: Артем Кошман, Роман Курцын, Алёна Митрошина, Иван Непомнящий, Даниял Алисултанов, Василиса Перелыгина, Полина Кутепова, Ольга Смирнова, Александр Кудин, Егор Дрозд, Даминик Валиуллин, Рената Джало, Арман Хачатрян, Дмитрий Быковский, Анастасия Грузова, Михаил Елисеев, Антон Клюев

Описание: Старшеклассник Денис — геймер-любитель и обычный подросток, у которого общаться с пользователями сети получается гораздо лучше, чем со сверстниками в школе. Когда ситуация становится критической, на помощь ему приходит собственный аватар из видеоигры. IIIRAM помогает герою обрести уверенность в себе, пусть даже его методы сомнительны, а советы чаще всего неэтичны. Денис aka IIIRAM получает предложение из мира профессионального киберспорта, и его жизнь резко меняется: первые деньги, новые знакомства и шанс добиться внимания девушки, о которой он раньше даже не мечтал.

Качество: WEBRip
Формат: AVI

Видео: 720x400 (1.80:1), 25 fps, XviD build 73 ~1650 kbps avg, 0.229 bit/pixel
Аудио 1: AC3, 6 ch, 448 kbps, 16 bits, 48.0 KHz - с цензурой
Аудио 2: AC3, 6 ch, 448 kbps, 16 bits, 48.0 KHz - без цензуры 18+
скриншот  скриншот  скриншот  скриншот  скриншот  скриншот  

General
Complete name : D:\Hedshot.S01.WEB-DLRip.25Kuzmich\Hedshot.s01.e01.WEB-DLRip.25Kuzmich.avi
Format : AVI
Format/Info : Audio Video Interleave
File size : 849 MiB
Duration : 46 min 23 s
Overall bit rate : 2 561 kb/s
Writing application : VirtualDubMod 1.5.10.3 (build 2550/release)
Writing library : VirtualDubMod build 2550/release

Video
ID : 0
Format : MPEG-4 Visual
Format profile : Advanced [email protected]
Format settings : BVOP1
Format settings, BVOP : 1
Format settings, QPel : No
Format settings, GMC : No warppoints
Format settings, Matrix : Default (MPEG)
Codec ID : XVID
Codec ID/Hint : XviD
Duration : 46 min 23 s
Bit rate : 1 650 kb/s
Width : 720 pixels
Height : 400 pixels
Display aspect ratio : 16:9
Frame rate : 25.000 FPS
Color space : YUV
Chroma subsampling : 4:2:0
Bit depth : 8 bits
Scan type : Progressive
Compression mode : Lossy
Bits/(Pixel*Frame) : 0.229
Stream size : 547 MiB (64%)
Writing library : XviD 73

Audio #1
ID : 1
Format : AC-3
Format/Info : Audio Coding 3
Codec ID : 2000
Duration : 46 min 23 s
Bit rate mode : Constant
Bit rate : 448 kb/s
Channel(s) : 6 channels
Channel positions : Front: L C R, Side: L R, LFE
Sampling rate : 48.0 kHz
Frame rate : 31.250 FPS (1536 SPF)
Bit depth : 16 bits
Compression mode : Lossy
Stream size : 149 MiB (17%)
Alignment : Split accross interleaves
Interleave, duration : 40 ms (1.00 video frame)
Interleave, preload duratio : 500 ms
Service kind : Complete Main

Audio #2
ID : 2
Format : AC-3
Format/Info : Audio Coding 3
Codec ID : 2000
Duration : 46 min 23 s
Bit rate mode : Constant
Bit rate : 448 kb/s
Channel(s) : 6 channels
Channel positions : Front: L C R, Side: L R, LFE
Sampling rate : 48.0 kHz
Frame rate : 31.250 FPS (1536 SPF)
Bit depth : 16 bits
Compression mode : Lossy
Stream size : 149 MiB (17%)
Alignment : Split accross interleaves
Interleave, duration : 40 ms (1.00 video frame)
Interleave, preload duratio : 500 ms
Service kind : Complete Main

Внимание! Раздача ведётся путём добавления новых серий; при каждом добавлении создаётся новый торрент. Чтобы начать докачку новой серии, пользователям необходимо сделать следующее: (1) остановить скачивание, (2) удалить старый торрент у себя из клиента (старые серии удалять не надо), (3) скачать новый торрент и запустить его у себя в клиенте вместо старого, при этом указать клиенту путь в старую папку куда и должно происходить скачивание новых серий.

Ваш клиент при этом должен произвести хеширование (проверку) старой папки (если не производит сам - помогите ему сделать это), и будет докачивать только те серии которых у вас ещё нет. Старые серии при этом не удаляются, а продолжают раздаваться!

Eсли вы уже удалили старые серии, то предотвратить повторную закачку старых серий можно, отжав галочку в соответствующих местах при запуске нового торрента.



Скачать Хэдшот через торрент https://i121.fastpic.org/big/2023/0101/92/7ab1a4f7ff5aceb8d48848fe7d87b392.jpg Скачать, смотреть онлайн Хэдшот бесплантно в хорошем качестве Описание: Старшеклассник Денис — геймер-любитель и обычный подросток, у которого общаться с пользователями сети получается гораздо лучше, ... 9 10 9
Торрент: Зарегистрирован [2023-01-25 00:29] · скачан: 11 раз
Статус: √ проверено
Размер: 5.8 GB
Как cкачать? Как скачать Хэдшот через торрент | UTorrent

% Раздел Тема Автор DL S | L
Наши сериалы [ 12.3 GB ] Хэдшот / Сезон: 1 / Серии: 1-7 из 8 | | 1080p bober100 Скачать
5 | 2
Наши сериалы [ 26.47 GB ] Хэдшот / Сезон: 1 / Серии: 1-7 из 8 | | 2160p, (SDR bober100 Скачать
3 | 1
Наши сериалы [ 5.65 GB ] Хэдшот / Сезон: 1 / Серии: 1-7 из 8 | | WEBRip-AVC bober100 Скачать
4 | 3

28-11-2019 20:33  


Отключить вcю реклaмy на сайте, в т.ч. и в плеере онлайн просмотра!

    Дорогой пользователь! Огромная просьба, поблагодарите релизера, оцените раздачу и оставьте свои комментарий, если Вы скачали Хэдшот через торрент бесплатно!!
    Комментировать посты могут только пользователи прошедшие не сложную регистрацию
    Показать сообщения:    


    Хэдшот через торрент
    Скачать бесплатно Хэдшот
    Хэдшот скачать торрент
    Хэдшот смотреть онлайн
    Cкачать фильм Хэдшот бесплатно
    Хэдшот скачать торрент в хорошем качестве
    Хэдшот смотреть онлайн бесплатно в хорошем качестве
    Вы не можете начинать темы
    Вы не можете отвечать на сообщения
    Вы не можете редактировать свои сообщения
    Вы не можете удалять свои сообщения
    Вы не можете голосовать в опросах
    Вы не можете прикреплять файлы к сообщениям
    Вы можете скачивать файлы
    Хэдшот / Сезон: 1 / Серии: 1-7 из 8 [2022, Триллер, фантастика, драма, WEBRip] смотреть онлайн, скачать торрент picoco.icu