Достать ножи: Стеклянная луковица

MVO

Добыча

Дубляж

Уэнсдэй

1 сезон

Тор

Дубляж

13 клиническая

1 сезон

Жестокая ночь

MVO

Одни из нас

1 сезон

Deluxe

pack

Рекомендуем

30

Пиратка

ВАЖНО

ВАЖНО

Ghostwire

Пиратка

jed

RePack

nioh2

RePack

RDR2

RePack

NEED FOR SPEED™ PAYBACK

RePack

скачать торрент

Кинопоиск HD

Острые козырьки 6 сезон

6 сезон

FAR CRY 6

RePack

скачать торрент

Лицензия

скачать торрент

MVO

1

1 сезон

скачать торрент

1 сезон

скачать торрент

Лицензия

  

Хэдшот / Сезон: 1 / Серии: 1-7 из 8 (Владимир Битоков) [2022, Триллер, фантастика, драма, WEBRip-AVC]

Хэдшот через торрент pb.wtf

Раздают: 9 [ 397 KB/s ] Качают: 9 [ 0 KB/s ]
Размер: 5.65 GB | Добавлен: 1 д. 11 ч. назад | Торрент скачан:17 раз
Смотреть онлайн | Скачать | Поддержите нас   

02-01-2023 18:58 Хэдшот Скачать торрент  

Хэдшот
Год выпуска: 2022
Страна: Россия
Выпущено: Кинокомпания "Нон-Стоп Продакшн"
Жанр: Триллер, фантастика, драма
Продолжительность: ~ 00:45:00 серия
Перевод: Не требуется
Субтитры: Русские (полные, SDH)

Режиссер: Владимир Битоков



В ролях: Артём Кошман, Роман Курцын, Артём Покровский, Руслан Вавилов, Алёна Митрошина, Егор Дрозд, Иван Непомнящий, Даниял Алисултанов, Василиса Перелыгина, Полина Кутепова, Ольга Смирнова, Александр Кудин, Даминик Валиуллин, Рената Джало, Арман Хачатрян

Описание: «Хэдшот» – это история об обычном подростке, геймере-любителе. Старшеклассник Денис – изгой и жертва буллинга в школе. Когда жизнь становится совсем невыносимой, на помощь приходит его собственный аватар из компьютерной игры. IIIRAM помогает герою обрести уверенность в себе, но методы вымышленного друга довольно сомнительны, а его советы чаще всего неэтичны. Жизнь героя резко меняется, когда тот попадает в мир профессионального киберспорта: первые деньги, новые знакомства и шанс добиться внимания девушки, о которой он раньше даже не мечтал.

Качество: WEBRip-AVC
Формат: MKV

Видео: MPEG-4 AVC, ~ 1600 Кбит/с, 1024x576, 25 кадр/с
Аудио 1: AC3, 48,0 КГц, 6 ch, 448 Кбит/с | С цензурой
Аудио 2: AC3, 48,0 КГц, 6 ch, 448 Кбит/с | Без цензуры (18+)
скриншот  скриншот  скриншот  скриншот  скриншот  скриншот  

General
Unique ID : 282257698907909095848114934675961072883 (0xD458DAFDDB844BE67B0B50EDD2A8CCF3)
Complete name : F:\Хэдшот.(2022).WEBRip.(AVC).Files-x\01.Хэдшот.(2022).WEBRip.(AVC).by.Серый1779.Files-x.mkv
Format : Matroska
Format version : Version 4 / Version 2
File size : 829 MiB
Duration : 46 min 23 s
Overall bit rate : 2 498 kb/s
Encoded date : UTC 2023-01-02 14:24:54
Writing application : mkvmerge v32.0.0 ('Astral Progressions') 64-bit
Writing library : libebml v1.3.7 + libmatroska v1.5.0

Video
ID : 1
Format : AVC
Format/Info : Advanced Video Codec
Format profile : [email protected]
Format settings : CABAC / 9 Ref Frames
Format settings, CABAC : Yes
Format settings, RefFrames : 9 frames
Codec ID : V_MPEG4/ISO/AVC
Duration : 46 min 23 s
Bit rate : 1 600 kb/s
Width : 1 024 pixels
Height : 576 pixels
Display aspect ratio : 16:9
Frame rate mode : Constant
Frame rate : 25.000 FPS
Color space : YUV
Chroma subsampling : 4:2:0
Bit depth : 8 bits
Scan type : Progressive
Bits/(Pixel*Frame) : 0.109
Stream size : 531 MiB (64%)
Writing library : x264 core 146 r2538 121396c
Encoding settings : cabac=1 / ref=9 / deblock=1:-2:-1 / analyse=0x3:0x133 / me=umh / subme=9 / psy=1 / psy_rd=1.00:0.15 / mixed_ref=1 / me_range=32 / chroma_me=1 / trellis=2 / 8x8dct=1 / cqm=0 / deadzone=21,11 / fast_pskip=0 / chroma_qp_offset=-3 / threads=18 / lookahead_threads=3 / sliced_threads=0 / nr=0 / decimate=1 / interlaced=0 / bluray_compat=0 / constrained_intra=0 / bframes=9 / b_pyramid=2 / b_adapt=2 / b_bias=0 / direct=1 / weightb=1 / open_gop=0 / weightp=2 / keyint=250 / keyint_min=25 / scenecut=40 / intra_refresh=0 / rc=2pass / mbtree=0 / bitrate=1600 / ratetol=1.0 / qcomp=0.60 / qpmin=0 / qpmax=69 / qpstep=4 / cplxblur=20.0 / qblur=0.5 / ip_ratio=1.40 / pb_ratio=1.30 / aq=2:1.00
Default : Yes
Forced : No
Color range : Limited
Color primaries : BT.709
Transfer characteristics : BT.709
Matrix coefficients : BT.709

Audio #1
ID : 2
Format : AC-3
Format/Info : Audio Coding 3
Format settings, Endianness : Big
Codec ID : A_AC3
Duration : 46 min 23 s
Bit rate mode : Constant
Bit rate : 448 kb/s
Channel(s) : 6 channels
Channel positions : Front: L C R, Side: L R, LFE
Sampling rate : 48.0 kHz
Frame rate : 31.250 FPS (1536 SPF)
Bit depth : 16 bits
Compression mode : Lossy
Stream size : 149 MiB (18%)
Service kind : Complete Main
Default : Yes
Forced : No

Audio #2
ID : 3
Format : AC-3
Format/Info : Audio Coding 3
Format settings, Endianness : Big
Codec ID : A_AC3
Duration : 46 min 23 s
Bit rate mode : Constant
Bit rate : 448 kb/s
Channel(s) : 6 channels
Channel positions : Front: L C R, Side: L R, LFE
Sampling rate : 48.0 kHz
Frame rate : 31.250 FPS (1536 SPF)
Bit depth : 16 bits
Compression mode : Lossy
Stream size : 149 MiB (18%)
Service kind : Complete Main
Default : No
Forced : No

Text #1
ID : 4
Format : UTF-8
Codec ID : S_TEXT/UTF8
Codec ID/Info : UTF-8 Plain Text
Duration : 43 min 57 s
Bit rate : 81 b/s
Count of elements : 517
Stream size : 26.2 KiB (0%)
Default : Yes
Forced : No

Text #2
ID : 5
Format : UTF-8
Codec ID : S_TEXT/UTF8
Codec ID/Info : UTF-8 Plain Text
Duration : 44 min 58 s
Bit rate : 88 b/s
Count of elements : 582
Stream size : 29.3 KiB (0%)
Default : No
Forced : No

Внимание! Раздача ведётся путём добавления новых серий; при каждом добавлении создаётся новый торрент. Чтобы начать докачку новой серии, пользователям необходимо сделать следующее: (1) остановить скачивание, (2) удалить старый торрент у себя из клиента (старые серии удалять не надо), (3) скачать новый торрент и запустить его у себя в клиенте вместо старого, при этом указать клиенту путь в старую папку куда и должно происходить скачивание новых серий.

Ваш клиент при этом должен произвести хеширование (проверку) старой папки (если не производит сам - помогите ему сделать это), и будет докачивать только те серии которых у вас ещё нет. Старые серии при этом не удаляются, а продолжают раздаваться!

Eсли вы уже удалили старые серии, то предотвратить повторную закачку старых серий можно, отжав галочку в соответствующих местах при запуске нового торрента.



Скачать Хэдшот через торрент https://i121.fastpic.org/big/2023/0102/1c/e3f9ccc6b3655fe76be7085c7f668c1c.jpg Скачать, смотреть онлайн Хэдшот бесплантно в хорошем качестве Описание: «Хэдшот» – это история об обычном подростке, геймере-любителе. Старшеклассник Денис – изгой и жертва буллинга в школе. Когда ... 8.9 10 8
Торрент: Зарегистрирован [2023-01-25 09:58] · скачан: 17 раз
Статус: √ проверено
Размер: 5.65 GB
Как cкачать? Как скачать Хэдшот через торрент | UTorrent

% Раздел Тема Автор DL S | L
Наши сериалы [ 12.3 GB ] Хэдшот / Сезон: 1 / Серии: 1-7 из 8 | | 1080p bober100 Скачать
7 | 4
Наши сериалы [ 26.47 GB ] Хэдшот / Сезон: 1 / Серии: 1-7 из 8 | | 2160p, (SDR bober100 Скачать
3 | 1
Наши сериалы [ 5.8 GB ] Хэдшот / Сезон: 1 / Серии: 1-7 из 8 | | WEBRip bober100 Скачать
6 | 3

28-11-2019 20:33  


Отключить вcю реклaмy на сайте, в т.ч. и в плеере онлайн просмотра!

    Дорогой пользователь! Огромная просьба, поблагодарите релизера, оцените раздачу и оставьте свои комментарий, если Вы скачали Хэдшот через торрент бесплатно!!
    Комментировать посты могут только пользователи прошедшие не сложную регистрацию
    Показать сообщения:    


    Хэдшот через торрент
    Скачать бесплатно Хэдшот
    Хэдшот скачать торрент
    Хэдшот смотреть онлайн
    Cкачать фильм Хэдшот бесплатно
    Хэдшот скачать торрент в хорошем качестве
    Хэдшот смотреть онлайн бесплатно в хорошем качестве
    Вы не можете начинать темы
    Вы не можете отвечать на сообщения
    Вы не можете редактировать свои сообщения
    Вы не можете удалять свои сообщения
    Вы не можете голосовать в опросах
    Вы не можете прикреплять файлы к сообщениям
    Вы можете скачивать файлы
    Хэдшот / Сезон: 1 / Серии: 1-7 из 8 [2022, Триллер, фантастика, драма, WEBRip-AVC] смотреть онлайн, скачать торрент picoco.icu