Достать ножи: Стеклянная луковица

MVO

Добыча

Дубляж

Уэнсдэй

1 сезон

Тор

Дубляж

13 клиническая

1 сезон

Жестокая ночь

MVO

Одни из нас

1 сезон

Deluxe

pack

Рекомендуем

30

Пиратка

ВАЖНО

ВАЖНО

Ghostwire

Пиратка

jed

RePack

nioh2

RePack

RDR2

RePack

NEED FOR SPEED™ PAYBACK

RePack

скачать торрент

Кинопоиск HD

Острые козырьки 6 сезон

6 сезон

FAR CRY 6

RePack

скачать торрент

Лицензия

скачать торрент

MVO

1

1 сезон

скачать торрент

1 сезон

скачать торрент

Лицензия

  

Жена олигарха / Сезон: 2 / Серии: 1-12 из 17 (Мария Кравченко (II) [2022, Комедия, WEB-DLRip]

Жена олигарха через торрент pb.wtf

Раздают: 6 [ 477 KB/s ] Качают: 5 [ 361 KB/s ]
Размер: 3.59 GB | Добавлен: 1 д. 12 ч. назад | Торрент скачан:10 раз
Смотреть онлайн | Скачать | Поддержите нас   

09-01-2023 20:01 Жена олигарха Скачать торрент  

Жена олигарха 2
Год выпуска: 2022
Страна: Россия
Жанр: Комедия
Продолжительность: ~ 00:25:00
Перевод: Не требуется
Субтитры: отсутствуют

Режиссер: Мария Кравченко (II)

rating

В ролях: Елена Подкаминская, Владимир Гостюхин, Маргарита Дьяченкова, Кай Алекс Гетц, Антон Филипенко, Александр Обласов, Евгения Капралова, Даниил Киселев, Алексей Маклаков, Вадим Соснин, Людмила Артемьева, Валерий Панков, Сандра Сантонес, Анастасия Матвеева, Анастасия Калашникова, Грув, Денис Варенов, Юлия Акимова, Светлана Нестерова, Евгений Пилипенко, Марина Барсукова, Александр Кузнецов, Вадим Салахов, Антон Никушин, Мария Букнис, Генриетта Автушенко, Владимир Якимов, Михаил Коновалов, Игорь Трафлялин, Виктор Боборыкин

Описание: После присвоения «Кирзачсумкапрому» статуса исторического памятника хозяйка завода Альбина ищет способы вернуть его в строй. Не в силах достучаться до местного мэра-лентяя, экс-миллионерша из Лондона решает выдвинуть свою кандидатуру на выборах. Правда, погружаясь в мир политики, просветлённая йогиня не замечает, как сама становится на скользкую дорожку.

Качество: WEB-DLRip
Формат: AVI

Видео: XviD, 720x400, ~ 1600 Кбит/с, 0.218 bit/pixel, 25 Кадр/с
Аудио: 48.0 kHz, AC3 Dolby Digital, 2/0 (L,R) ch, ~ 192 kbps

Общее
Полное имя : C:\Users\Admin\Desktop\Жена олигарха.s02.2022.WEB-DLRip.Files-x\01. Жена олигарха.s02.2022.WEB-DLRip.Files-x.avi
Формат : AVI
Формат/Информация : Audio Video Interleave
Размер файла : 321 Мбайт
Продолжительность : 25 м. 15 с.
Общий поток : 1 775 Кбит/сек
Программа кодирования : VirtualDubMod 1.5.10.3 | www.virtualdub-fr.org || (build 2550/release)
Библиотека кодирования : VirtualDubMod build 2550/release

Видео
Идентификатор : 0
Формат : MPEG-4 Visual
Профиль формата : Advanced [email protected]
Настройки формата : BVOP1 / Custom Matrix
Параметр BVOP формата : 1
Параметр QPel формата : Нет
Параметр GMC формата : Без точки перехода
Параметр матрицы формата : Выборочная
Идентификатор кодека : XVID
Идентификатор кодека/Подсказка : XviD
Продолжительность : 25 м. 15 с.
Битрейт : 1 573 Кбит/сек
Ширина : 720 пикселей
Высота : 400 пикселей
Соотношение сторон : 16:9
Частота кадров : 25,000 кадров/сек
Цветовое пространство : YUV
Субдискретизация насыщенности : 4:2:0
Битовая глубина : 8 бит
Тип развёртки : Прогрессивная
Метод сжатия : С потерями
Бит/(Пиксели*Кадры) : 0.218
Размер потока : 284 Мбайт (89%)
Библиотека кодирования : XviD 1.2.1 (UTC 2008-12-04)

Аудио
Идентификатор : 1
Формат : AC-3
Формат/Информация : Audio Coding 3
Коммерческое название : Dolby Digital
Идентификатор кодека : 2000
Продолжительность : 25 м. 15 с.
Вид битрейта : Постоянный
Битрейт : 192 Кбит/сек
Каналы : 2 канала
Channel layout : L R
Частота : 48,0 КГц
Частота кадров : 31,250 кадров/сек (1536 SPF)
Метод сжатия : С потерями
Размер потока : 34,7 Мбайт (11%)
Выравнивание : Разделение по промежуткам
Продолжительность промежутка : 40 мс. (1,00 видеокадр)
Время предзагрузки промежутка : 500 мс.
Service kind : Complete Main

Внимание! Раздача ведётся путём добавления новых серий; при каждом добавлении создаётся новый торрент.
Чтобы начать докачку новой серии, пользователям необходимо сделать следующее:
1. Остановить скачивание;
2. Удалить старый торрент у себя из клиента (старые серии удалять не надо);
3. Скачать новый торрент и запустить его у себя в клиенте вместо старого, при этом указать клиенту путь в старую папку куда и должно происходить скачивание новых серий. Ваш клиент при этом должен произвести хеширование (проверку) старой папки и будет докачивать только те серии, которых у вас ещё нет. Старые серии при этом не удаляются, а продолжают раздаваться! Eсли вы уже удалили старые серии, то предотвратить повторную закачку старых серий можно, отжав галочку в соответствующих местах при запуске нового торрента.



Скачать Жена олигарха через торрент https://i121.fastpic.org/big/2023/0109/f7/fa5e302af50123b6a12ff49ec2e374f7.jpg Скачать, смотреть онлайн Жена олигарха бесплантно в хорошем качестве Описание: После присвоения «Кирзачсумкапрому» статуса исторического памятника хозяйка завода Альбина ищет способы вернуть его в строй. Не в ... 9.1 10 10
Торрент: Зарегистрирован [2023-01-25 10:01] · скачан: 10 раз
Статус: √ проверено
Размер: 3.59 GB
Как cкачать? Как скачать Жена олигарха через торрент | UTorrent

% Раздел Тема Автор DL S | L
Наши сериалы [ 9.24 GB ] Жена олигарха / Сезон: 2 / Серии: 1-13 из 17 | | 1080p bober100 Скачать
13 | 29
Наши сериалы [ 10.52 GB ] Жена олигарха / Сезон: 1 / Серии: 1-17 из 17 | | 1080p bober100 Скачать
7 | 0
Наши сериалы [ 5.14 GB ] Жена олигарха / Сезон: 1 / Серии: 1-17 из 17 | | DLRip-AVC bober100 Скачать
4 | 1
Наши сериалы [ 6.26 GB ] Жена олигарха / Сезон: 1 / Серии: 1-17 из 17 | | 720p bober100 Скачать
6 | 1
Наши сериалы [ 5.76 GB ] Жена олигарха / Сезон: 1 / Серии: 1-17 из 17 | | DLRip bober100 Скачать
4 | 0



Последний раз редактировалось: bober100 (2023-01-25 10:01), всего редактировалось 4 раз(а)

28-11-2019 20:33  


Отключить вcю реклaмy на сайте, в т.ч. и в плеере онлайн просмотра!

19-01-2023 11:23 Жена олигарха Скачать торрент  

От сериала попахивает каким то не прикрытым желанием донести в массы нашего общества гребаные идеи "Демократического Запада". Школьницы с татухами и крашенными волосами, постоянно употребление английских слов взамен Русского языка и это странно прозвучащее выражение "Неважно какого ты пола" и "Сексизм". Санными тряпками надо гнать всю эту засевшую Либерду из нашего мира!



    Дорогой пользователь! Огромная просьба, поблагодарите релизера, оцените раздачу и оставьте свои комментарий, если Вы скачали Жена олигарха через торрент бесплатно!!
    Комментировать посты могут только пользователи прошедшие не сложную регистрацию
    Показать сообщения:    


    Жена олигарха через торрент
    Скачать бесплатно Жена олигарха
    Жена олигарха скачать торрент
    Жена олигарха смотреть онлайн
    Cкачать фильм Жена олигарха бесплатно
    Жена олигарха скачать торрент в хорошем качестве
    Жена олигарха смотреть онлайн бесплатно в хорошем качестве
    Вы не можете начинать темы
    Вы не можете отвечать на сообщения
    Вы не можете редактировать свои сообщения
    Вы не можете удалять свои сообщения
    Вы не можете голосовать в опросах
    Вы не можете прикреплять файлы к сообщениям
    Вы можете скачивать файлы
    Жена олигарха / Сезон: 2 / Серии: 1-12 из 17 [2022, Комедия, WEB-DLRip] смотреть онлайн, скачать торрент picoco.icu