Достать ножи: Стеклянная луковица

MVO

Добыча

Дубляж

Уэнсдэй

1 сезон

Тор

Дубляж

13 клиническая

1 сезон

Жестокая ночь

MVO

Одни из нас

1 сезон

Deluxe

pack

Рекомендуем

30

Пиратка

ВАЖНО

ВАЖНО

Ghostwire

Пиратка

jed

RePack

nioh2

RePack

RDR2

RePack

NEED FOR SPEED™ PAYBACK

RePack

скачать торрент

Кинопоиск HD

Острые козырьки 6 сезон

6 сезон

FAR CRY 6

RePack

скачать торрент

Лицензия

скачать торрент

MVO

1

1 сезон

скачать торрент

1 сезон

скачать торрент

Лицензия

  

Мэйфейрские ведьмы / Anne Rice's Mayfair Witches / Сезон: 1 / Серии: 1-3 из 8 (Хайфа Аль-Мансур, Майкл Аппендаль, Аксель Кэролин) [2023, Ужасы, фэнтези, WEB-DL 1080p] MVO [NewStudio]

Мэйфейрские ведьмы через торрент pb.wtf

Раздают: 10 [ 4 MB/s ] Качают: 4 [ 0 KB/s ]
Размер: 10.52 GB | Добавлен: 1 д. 23 ч. назад | Торрент скачан:21 раз
Смотреть онлайн | Скачать | Поддержите нас   

11-01-2023 12:57 Мэйфейрские ведьмы Скачать торрент  

Мэйфейрские ведьмы
Anne Rice's Mayfair Witches

Год выпуска: 2023
Страна: США
Студия: AMC Studios, Gran Via Productions
Жанр: Ужасы, фэнтези
Продолжительность: ~ 00:53:00 серия
Перевод: Профессиональный многоголосый | NewStudio
Субтитры: Русские (Forced, Full |«homo SUBiens»|), английские (Full, SDH)

Режиссер: Хайфа Аль-Мансур, Майкл Аппендаль, Аксель Кэролин

rating скриншот  скриншот  

В ролях: Александра Даддарио, Джек Хьюстон, Тонгай Арнольд Чириса, Гарри Хэмлин, Бет Грант, Ханна Калуэлл, Джен Ричардс, Джеральдин Сингер, Эмма Роуз Смит, Аннабет Гиш и другие.

Описание: Экранизация одноименной мистической трилогии Энн Райс. Молодая нейрохирург Роуан (Александра Даддарио) однажды узнает, что связана с древним кланом ведьм. Девушка пытается выяснить больше подробностей о своей семье и обнаруживает, что сама обладает сверхспособностями. Главу клана сыграл Гарри Хэмлин («Раш»), а роль могущественного и таинственного существа Лэшера — Джек Хьюстон («Дом Gucci»). Шоураннер сериала Эста Спэлдинг работала над «Мастерами секса», а одна из постановщиц, Хайфа Аль-Мансур, снимала «Птицу доброго господа». Для канала AMC «Мэйфейрские ведьмы» — уже второй проект, снятый по романам Энн Райс в этом году. Первым стало успешно стартовавшее осенью «Интервью с вампиром».

Качество: WEB-DL 1080p
Формат: MKV

Видео: 1920х1080 (16:9) at 24.000 fps, MPEG4-AVC, ~ 9500 kbps avg
Аудио#1: Russian: 48 kHz, AC3, 3/2 (L,C,R,l,r) + LFE ch, ~384 kbps avg |NewStudio|
Аудио#2: English: 48 kHz, AC3, 3/2 (L,C,R,l,r) + LFE ch, ~640 kbps avg
Аудио#3: English: 48 kHz, E-AC3, 3/2 (L,C,R,l,r) + LFE ch, ~640 kbps avg
скриншот  скриншот  скриншот  скриншот  

Общее
Уникальный идентификатор : 148469356584592018585801390043498828465 (0x6FB2287086C4B801083BDD3B600C52B1)
Полное имя : D:Anne_Rice's_Mayfair_Witches_(s01)_NewStudio_1080p\Anne.Rices.Mayfair.Witches.2023.S01E01.The.Witching.Hour.REPACK.1080p.AMZN.WEB-DL.DDP5.1.x264-NTb_EniaHD.mkv
Формат : Matroska
Версия формата : Version 4
Размер файла : 4,06 Гбайт
Продолжительность : 52 м. 40 с.
Общий поток : 11,0 Мбит/сек
Дата кодирования : UTC 2023-01-10 16:36:30
Программа кодирования : mkvmerge v58.0.0 ('Supper's Ready') 64-bit
Библиотека кодирования : libebml v1.4.2 + libmatroska v1.6.4

Видео
Идентификатор : 1
Формат : AVC
Формат/Информация : Advanced Video Codec
Профиль формата : [email protected]
Настройки формата : CABAC / 4 Ref Frames
Параметр CABAC формата : Да
Параметр RefFrames формата : 4 кадра
Идентификатор кодека : V_MPEG4/ISO/AVC
Продолжительность : 52 м. 40 с.
Вид битрейта : Постоянный
Битрейт : 9 404 Кбит/сек
Номинальный битрейт : 10 000 Кбит/сек
Ширина : 1 920 пикселей
Высота : 1 080 пикселей
Соотношение сторон : 16:9
Режим частоты кадров : Постоянный
Частота кадров : 24,000 кадра/сек
Цветовое пространство : YUV
Субдискретизация насыщенности : 4:2:0
Битовая глубина : 8 бит
Тип развёртки : Прогрессивная
Бит/(Пиксели*Кадры) : 0.189
Размер потока : 3,46 Гбайт (85%)
Заголовок : Release by EniaHD
Default : Да
Forced : Нет
Цветовой диапазон : Limited
Основные цвета : BT.709
Характеристики трансфера : BT.709
Коэффициенты матрицы : BT.709

Аудио #1
Идентификатор : 2
Формат : AC-3
Формат/Информация : Audio Coding 3
Коммерческое название : Dolby Digital
Идентификатор кодека : A_AC3
Продолжительность : 52 м. 40 с.
Вид битрейта : Постоянный
Битрейт : 384 Кбит/сек
Каналы : 6 каналов
Channel layout : L R C LFE Ls Rs
Частота : 48,0 КГц
Частота кадров : 31,250 кадров/сек (1536 SPF)
Метод сжатия : С потерями
Размер потока : 145 Мбайт (3%)
Заголовок : NewStudio
Язык : Russian
Service kind : Complete Main
Default : Да
Forced : Нет

Аудио #2
Идентификатор : 3
Формат : AC-3
Формат/Информация : Audio Coding 3
Коммерческое название : Dolby Digital
Идентификатор кодека : A_AC3
Продолжительность : 52 м. 40 с.
Вид битрейта : Постоянный
Битрейт : 384 Кбит/сек
Каналы : 6 каналов
Channel layout : L R C LFE Ls Rs
Частота : 48,0 КГц
Частота кадров : 31,250 кадров/сек (1536 SPF)
Метод сжатия : С потерями
Размер потока : 145 Мбайт (3%)
Язык : English
Service kind : Complete Main
Default : Нет
Forced : Нет

Аудио #3
Идентификатор : 4
Формат : E-AC-3
Формат/Информация : Enhanced AC-3
Коммерческое название : Dolby Digital Plus
Идентификатор кодека : A_EAC3
Продолжительность : 52 м. 40 с.
Вид битрейта : Постоянный
Битрейт : 640 Кбит/сек
Каналы : 6 каналов
Channel layout : L R C LFE Ls Rs
Частота : 48,0 КГц
Частота кадров : 31,250 кадров/сек (1536 SPF)
Метод сжатия : С потерями
Размер потока : 241 Мбайт (6%)
Язык : English
Service kind : Complete Main
Default : Нет
Forced : Нет

Текст #1
Идентификатор : 5
Формат : UTF-8
Идентификатор кодека : S_TEXT/UTF8
Идентификатор кодека/Информация : UTF-8 Plain Text
Заголовок : Forced
Язык : Russian
Default : Да
Forced : Нет

Текст #2
Идентификатор : 6
Формат : UTF-8
Идентификатор кодека : S_TEXT/UTF8
Идентификатор кодека/Информация : UTF-8 Plain Text
Заголовок : Full |homo SUBiens|
Язык : Russian
Default : Нет
Forced : Нет

Текст #3
Идентификатор : 7
Формат : UTF-8
Идентификатор кодека : S_TEXT/UTF8
Идентификатор кодека/Информация : UTF-8 Plain Text
Заголовок : Full
Язык : English
Default : Нет
Forced : Нет

Текст #4
Идентификатор : 8
Формат : UTF-8
Идентификатор кодека : S_TEXT/UTF8
Идентификатор кодека/Информация : UTF-8 Plain Text
Заголовок : SDH
Язык : English
Default : Нет
Forced : Нет

Когда раздача ведётся путём добавления новых серий, при каждом добавлении создётся новый торрент. Чтобы начать докачку новой серии, пользователям необходимо сделать следующее:
(1) остановить скачивание,
(2) удалить старый торрент у себя из клиента (старые серии удалять не надо),
(3) скачать новый торрент и запустить его у себя в клиенте вместо старого, при этом указать клиенту путь в старую папку, куда и должно происходить скачивание новых серий.
Ваш клиент при этом должен произвести хеширование (проверку) старой папки (если не производит сам - помогите ему сделать это), и будет докачивать только те серии, которых у вас ещё нет. Старые серии при этом не удаляются, а продолжают раздаваться!
Eсли вы уже удалили старые серии, то предотвратить повторную закачку старых серий можно, отжав галочку в соответсвующих местах при запуске нового торрента. По возможности, желательно не удалять старые серии как можно дольше, чтобы релизёр не столько продолжал раздавать старые серии, а смог сконцентрироваться на новых.




Скачать Мэйфейрские ведьмы через торрент https://i121.fastpic.org/big/2023/0106/99/7ff27ddde837f36bb6b7ac095ed3a099.jpeg Скачать, смотреть онлайн Мэйфейрские ведьмы бесплантно в хорошем качестве Описание: Экранизация одноименной мистической трилогии Энн Райс. Молодая нейрохирург Роуан (Александра Даддарио) однажды узнает, что ... 9.7 10 3
Info! Золотая раздача, скачанное не засчитывается.
Торрент: Зарегистрирован [2023-01-24 22:33] · скачан: 21 раз
Статус: √ проверено
Размер: 10.52 GB
Как cкачать? Как скачать Мэйфейрские ведьмы через торрент | UTorrent

% Раздел Тема Автор DL S | L
T Зарубежные сериалы [ 13.43 GB ] Мэйфейрские ведьмы / Anne Rice's Mayfair Witches / Сезон: 1 / Серии: 1-4 из 8 | | 1080p bober100 Скачать
7 | 18

28-11-2019 20:33  


Отключить вcю реклaмy на сайте, в т.ч. и в плеере онлайн просмотра!

    Дорогой пользователь! Огромная просьба, поблагодарите релизера, оцените раздачу и оставьте свои комментарий, если Вы скачали Мэйфейрские ведьмы через торрент бесплатно!!
    Комментировать посты могут только пользователи прошедшие не сложную регистрацию
    Показать сообщения:    


    Мэйфейрские ведьмы через торрент
    Скачать бесплатно Мэйфейрские ведьмы
    Мэйфейрские ведьмы скачать торрент
    Мэйфейрские ведьмы смотреть онлайн
    Cкачать фильм Мэйфейрские ведьмы бесплатно
    Мэйфейрские ведьмы скачать торрент в хорошем качестве
    Мэйфейрские ведьмы смотреть онлайн бесплатно в хорошем качестве
    Вы не можете начинать темы
    Вы не можете отвечать на сообщения
    Вы не можете редактировать свои сообщения
    Вы не можете удалять свои сообщения
    Вы не можете голосовать в опросах
    Вы не можете прикреплять файлы к сообщениям
    Вы можете скачивать файлы
    Мэйфейрские ведьмы / Anne Rice's Mayfair Witches / Сезон: 1 / Серии: 1-3 из 8 [2023, Ужасы, фэнтези, WEB-DL 1080p] MVO [NewStudio] смотреть онлайн, скачать торрент picoco.icu