Достать ножи: Стеклянная луковица

MVO

Добыча

Дубляж

Уэнсдэй

1 сезон

Тор

Дубляж

13 клиническая

1 сезон

Жестокая ночь

MVO

Одни из нас

1 сезон

Deluxe

pack

Рекомендуем

30

Пиратка

ВАЖНО

ВАЖНО

Ghostwire

Пиратка

jed

RePack

nioh2

RePack

RDR2

RePack

NEED FOR SPEED™ PAYBACK

RePack

скачать торрент

Кинопоиск HD

Острые козырьки 6 сезон

6 сезон

FAR CRY 6

RePack

скачать торрент

Лицензия

скачать торрент

MVO

1

1 сезон

скачать торрент

1 сезон

скачать торрент

Лицензия

  

Пиноккио Гильермо дель Торо / Guillermo del Toro’s Pinocchio (Гильермо Дель Торо, Марк Густафсон) [2022, Мультфильм, мюзикл, фэнтези, драма, семейный, кукольный, WEB-DL 1080p] Дубляж [Red Head Sound]

Пиноккио Гильермо дель Торо через торрент pb.wtf

Раздают: 13 [ 162 KB/s ]
Размер: 5.38 GB | Добавлен: 10 д. назад | Торрент скачан:190 раз
Смотреть онлайн | Скачать | Поддержите нас   

16-01-2023 14:34 Пиноккио Гильермо дель Торо Скачать торрент  

Пиноккио Гильермо дель Торо
Guillermo del Toro’s Pinocchio

Год выпуска: 2022
Страна: США, Мексика, Франция
Выпущено: Netflix Animation, The Jim Henson Company, Pathé, ShadowMachine, Double Dare You (DDY), Necropia Entertainment, Netflix
Жанр: Мультфильм, мюзикл, фэнтези, драма, семейный, кукольный, полнометражный
Продолжительность: 02:01:41
Перевод: Дублированный | Red Head Sound
Субтитры: Русские (полные), английские (полные)

Режиссер: Гильермо Дель Торо, Марк Густафсон

rating

В ролях: Эван МакГрегор, Грегори Манн, Дэвид Брэдли (I), Рон Перлман, Тильда Суинтон, Кристоф Вальц, Кейт Бланшетт, Тим Блэйк Нельсон, Финн Вулфард, Джон Туртурро, Берн Горман, Оливье Саркози

Описание: Кукольный мультфильм Гильермо дель Торо о деревянном мальчике из одноименной сказки Карло Коллоди. Пиноккио мечтает стать настоящим ребенком, но чувствует, что не может заменить Джепетто его умершего сына. Чтобы не быть обузой для старика, он уходит из дома, и впереди его ждут невероятные приключения в порой жестоком мире.

Качество: WEB-DL 1080p
Формат: MKV

Видео: MPEG-4 AVC, 1920х1080 (16:9), 4988 kbps, 24 fps
Аудио №1: AC3, 6 ch, 448 kbps - дубляж
Аудио №2: E-AC3+Atmos, 6 ch, 768 kbps - оригинал
скриншот  скриншот  скриншот  скриншот  скриншот  скриншот  

Общее
Уникальный идентификатор : 170630600917630287580210670749172268442 (0x805E4224C5C8A09A8407270132EA7D9A)
Полное имя : D:Guillermo.del.Toros.Pinocchio.2022.1080p_RHS_[scarfilm.org].mkv
Формат : Matroska
Версия формата : Version 4
Размер файла : 5,38 Гбайт
Продолжительность : 2 ч. 1 м.
Режим общего битрейта : Переменный
Общий поток : 6 330 Кбит/сек
Дата кодирования : UTC 2023-01-16 12:40:34
Программа кодирования : mkvmerge v6.1.0 ('Old Devil') built on Mar 4 2013 09:10:42
Библиотека кодирования : libebml v1.3.0 + libmatroska v1.4.0

Видео
Идентификатор : 1
Формат : AVC
Формат/Информация : Advanced Video Codec
Профиль формата : [email protected]
Настройки формата : CABAC / 4 Ref Frames
Параметр CABAC формата : Да
Параметр RefFrames формата : 4 кадра
Идентификатор кодека : V_MPEG4/ISO/AVC
Продолжительность : 2 ч. 1 м.
Вид битрейта : Переменный
Битрейт : 4 988 Кбит/сек
Максимальный битрейт : 20,0 Мбит/сек
Ширина : 1 920 пикселей
Высота : 1 080 пикселей
Соотношение сторон : 16:9
Режим частоты кадров : Постоянный
Частота кадров : 24,000 кадра/сек
Цветовое пространство : YUV
Субдискретизация насыщенности : 4:2:0
Битовая глубина : 8 бит
Тип развёртки : Прогрессивная
Бит/(Пиксели*Кадры) : 0.100
Размер потока : 4,24 Гбайт (79%)
Библиотека кодирования : x264 core 148 r2727 7d026e8
Настройки программы : cabac=1 / ref=4 / deblock=1:0:0 / analyse=0x3:0x111 / me=umh / subme=10 / psy=1 / psy_rd=1.00:0.00 / mixed_ref=1 / me_range=120 / chroma_me=1 / trellis=2 / 8x8dct=1 / cqm=0 / deadzone=21,11 / fast_pskip=1 / chroma_qp_offset=-2 / threads=8 / lookahead_threads=2 / sliced_threads=0 / nr=0 / decimate=1 / interlaced=0 / bluray_compat=0 / stitchable=1 / constrained_intra=0 / bframes=16 / b_pyramid=2 / b_adapt=2 / b_bias=0 / direct=3 / weightb=1 / open_gop=0 / weightp=2 / keyint=240 / keyint_min=121 / scenecut=0 / intra_refresh=0 / rc_lookahead=240 / rc=crf / mbtree=1 / crf=16.0 / qcomp=0.50 / qpmin=6 / qpmax=51 / qpstep=4 / vbv_maxrate=20000 / vbv_bufsize=25000 / crf_max=0.0 / nal_hrd=vbr / filler=0 / ip_ratio=1.40 / aq=1:0.80
Язык : English
Default : Да
Forced : Нет

Аудио #1
Идентификатор : 2
Формат : AC-3
Формат/Информация : Audio Coding 3
Коммерческое название : Dolby Digital
Идентификатор кодека : A_AC3
Продолжительность : 2 ч. 1 м.
Вид битрейта : Постоянный
Битрейт : 448 Кбит/сек
Каналы : 6 каналов
Channel layout : L R C LFE Ls Rs
Частота : 48,0 КГц
Частота кадров : 31,250 кадров/сек (1536 SPF)
Метод сжатия : С потерями
Размер потока : 390 Мбайт (7%)
Заголовок : Дубляж - Red Head Sound
Язык : Russian
Service kind : Complete Main
Default : Да
Forced : Да

Аудио #2
Идентификатор : 3
Формат : E-AC-3 JOC
Формат/Информация : Enhanced AC-3 with Joint Object Coding
Коммерческое название : Dolby Digital Plus with Dolby Atmos
Идентификатор кодека : A_EAC3
Продолжительность : 2 ч. 1 м.
Вид битрейта : Постоянный
Битрейт : 768 Кбит/сек
Каналы : 6 каналов
Channel layout : L R C LFE Ls Rs
Частота : 48,0 КГц
Частота кадров : 31,250 кадров/сек (1536 SPF)
Метод сжатия : С потерями
Размер потока : 668 Мбайт (12%)
Заголовок : оригинал
Язык : English
Service kind : Complete Main
Default : Нет
Forced : Нет
Complexity index : 16
Number of dynamic objects : 15
Bed channel count : 1 канал
Bed channel configuration : LFE

Текст #1
Идентификатор : 4
Формат : UTF-8
Идентификатор кодека : S_TEXT/UTF8
Идентификатор кодека/Информация : UTF-8 Plain Text
Заголовок : русские, полные
Язык : Russian
Default : Нет
Forced : Нет

Текст #2
Идентификатор : 5
Формат : UTF-8
Идентификатор кодека : S_TEXT/UTF8
Идентификатор кодека/Информация : UTF-8 Plain Text
Заголовок : оригинал, полные
Язык : English
Default : Нет
Forced : Нет

Меню
01:50:36.000 : en:End Credits




Скачать Пиноккио Гильермо дель Торо через торрент https://i121.fastpic.org/big/2023/0116/f7/9366e909cd45896b80154e22c9ab9bf7.jpg Скачать, смотреть онлайн Пиноккио Гильермо дель Торо бесплантно в хорошем качестве Описание: Кукольный мультфильм Гильермо дель Торо о деревянном мальчике из одноименной сказки Карло Коллоди. Пиноккио мечтает стать ... 10 10 8
Торрент: Зарегистрирован [2023-01-16 14:34] · скачан: 190 раз
Статус: √ проверено
Размер: 5.38 GB
Как cкачать? Как скачать Пиноккио Гильермо дель Торо через торрент | UTorrent

% Раздел Тема Автор DL S | L
Зарубежные Мультфильмы (WEB-DL 720p, 1080p) [ 5.93 GB ] Пиноккио Гильермо дель Торо / Guillermo del Toro’s Pinocchio | DUB | 1080p bober100 Скачать
30 | 1



Последний раз редактировалось: bober100 (2023-01-20 21:20), всего редактировалось 1 раз

28-11-2019 20:33  


Отключить вcю реклaмy на сайте, в т.ч. и в плеере онлайн просмотра!

16-01-2023 15:54 Пиноккио Гильермо дель Торо Скачать торрент  

Классный мульт! Смотрится с интересом от начала и до конца. Режиссер: Гильермо Дель Торо, и этим все сказано!!!



16-01-2023 18:22 Пиноккио Гильермо дель Торо Скачать торрент  

Чё, запОд так прорвало на пинокио, уже третий за два года))



    Дорогой пользователь! Огромная просьба, поблагодарите релизера, оцените раздачу и оставьте свои комментарий, если Вы скачали Пиноккио Гильермо дель Торо через торрент бесплатно!!
    Комментировать посты могут только пользователи прошедшие не сложную регистрацию
    Показать сообщения:    


    Пиноккио Гильермо дель Торо через торрент
    Скачать бесплатно Пиноккио Гильермо дель Торо
    Пиноккио Гильермо дель Торо скачать торрент
    Пиноккио Гильермо дель Торо смотреть онлайн
    Cкачать фильм Пиноккио Гильермо дель Торо бесплатно
    Пиноккио Гильермо дель Торо скачать торрент в хорошем качестве
    Пиноккио Гильермо дель Торо смотреть онлайн бесплатно в хорошем качестве
    Вы не можете начинать темы
    Вы не можете отвечать на сообщения
    Вы не можете редактировать свои сообщения
    Вы не можете удалять свои сообщения
    Вы не можете голосовать в опросах
    Вы не можете прикреплять файлы к сообщениям
    Вы можете скачивать файлы
    Пиноккио Гильермо дель Торо / Guillermo del Toro’s Pinocchio [2022, Мультфильм, мюзикл, фэнтези, драма, семейный, кукольный, WEB-DL 1080p] Дубляж [Red Head Sound] смотреть онлайн, скачать торрент picoco.icu