Архив 81

1 сезон

Добыча

Дубляж

Тед Лассо

3 сезон

Тор

1 сезон

13 клиническая

3 сезон

Жестокая ночь

Дубляж

Одни из нас

1s 9e

Premium

Premium

Deluxe

Deluxe

pack

Рекомендуем

30

Repack

ВАЖНО

ВАЖНО

Ghostwire

Пиратка

jed

RePack

nioh2

RePack

RDR2

RePack

NEED FOR SPEED™ PAYBACK

RePack

скачать торрент

Кинопоиск HD

Острые козырьки 6 сезон

6 сезон

FAR CRY 6

RePack

скачать торрент

Лицензия

скачать торрент

MVO

1

1 сезон

скачать торрент

1 сезон

скачать торрент

Лицензия

  

Фандорин. Азазель / Сезон: 1 / Серии: 1-6 из 6 (Нурбек Эген) [2022, Приключения, детектив, WEBRip 1080p]

Фандорин. Азазель через торрент pb.wtf

Раздают: 5 [ 15 KB/s ]
Размер: 12.61 GB | Добавлен: 1 мес. 4 д. назад | Торрент скачан:135 раз
Смотреть онлайн | Скачать | Поддержите нас   

18-01-2023 21:21 Фандорин. Азазель Скачать торрент  

Фандорин. Азазель
Год выпуска: 2022
Страна: Россия
Производство: Плюс Студия
Жанр: Приключения, детектив
Продолжительность: ~ 00:52:00 серия
Субтитры: Русские (полные, SDH)

Режиссер: Нурбек Эген

rating

В ролях: Владислав Тирон, Мила Ершова, Александр Семчев, Максим Матвеев, Евгений Серзин, Сергей Горошко, Милена Радулович, Уршула Малка, Дмитрий Ломакин, Евгений Стычкин, Татьяна Владимирова, Артём Быстров, Александр Танхилевич, Игорь Черневич, Слава Киселева, Максим Иванов, Марис Апшиник, Влад Бахарев, Илья Дель, Варвара Маценова, Ольга Павлюкова, Надежда Рязанцева, Николай Калмыков, Сергей Гамов, Алексей Розин, Сергей Заморев, Кристина Кузьмина, Андрей Феськов, Денис Старков, Александр Дюрис, Григорий Верник, Святослав Рогожан, Евгений Санников, Евгений Романцов, Евгений Коряковский, Елена Симонова, Серафима Селиванова, Павел Сергиенко, Алексей Симонов, Алексей Шевченко, Екатерина Варнава, Евгений Барулин, Ида Галич, Самвел Мужикян, Павел Исайкин, Юрий Уткин, Юлия Марченко, Андрей Шарков, Никита Попов, Никита Каратаев, Илья Ларионов, Антон Пулит, Владимир Селезнев, Ольга Мирошникова, Владимир Борисов, Наталья Волкова, Андрей Перович, Андрей Благословенский, Владимир Крылов, Данила Воропаев, Татьяна Воротникова, Алексей Вдовин, Сергей Козик, Евгений Кошелев, Сергей Попов, Олег Попов, Антон Багров, Игорь Лепихин, Вячеслав Карпов, Наталья Иохвидова, Борис Хасанов, Александр Малич, Егор Заховаев, Роман Каун, София Земская, Тимофей Меренков, Екатерина Королева

Описание: Петроград, столица Российский империи, 2023 год. Революция не состоялась, большевики не пришли к власти, а царь Николай III делит управление страной с прогрессивным премьер-министром Дмитрием Орловым. В это время 20-летний Эраст Фандорин начинает карьеру в сыскном управлении полиции. Занимаясь не самой интересной работой, он узнает странную новость: владелец нефтепроводной компании, молодой миллионер стреляет себе в висок в центре столицы на глазах у десятков людей. Самоубийство попадает на запись камеры робота-городового. Фандорин начинает подозревать, что дело сложнее, чем кажется, и берется за свое первое серьезное расследование.

Качество: WEBRip 1080p
Формат: MKV

Видео: MPEG-4 AVC, 1920x1080, ~ 6000 Кбит/с, 0.153 bit/pixel, 25 Кадр/с
Аудио 1: AC3, 48,0 КГц, 6 ch, 448 Кбит/с | С цензурой
Аудио 2: AC3, 48,0 КГц, 6 ch, 448 Кбит/с | Без цензуры (18+)
Аудио 3: E-AC3, 48,0 КГц, 6 ch, 448 Кбит/с | С цензурой
Аудио 4: E-AC3, 48,0 КГц, 6 ch, 448 Кбит/с | Без цензуры (18+)
скриншот  скриншот  скриншот  скриншот  скриншот  скриншот  

Общее
Уникальный идентификатор : 321581090298316175505624211628318631030 (0xF1EE43DFEA3FADE4EF8BC928E23DA476)
Полное имя : C:\Fandorin.Azazel.S01.2022.WEBRip.1080p\Fandorin.Azazel.S01.E01.2022.WEBRip.1080p.mkv
Формат : Matroska
Версия формата : Version 4
Размер файла : 3,06 Гбайт
Продолжительность : 57 м. 13 с.
Общий поток : 7 652 Кбит/сек
Название фильма : Fandorin.Azazel.S01.E01.2022.WEBRip.1080p
Дата кодирования : UTC 2023-01-18 21:11:12
Программа кодирования : mkvmerge v72.0.0 ('Minuano (Six-eight)') 64-bit
Библиотека кодирования : libebml v1.4.4 + libmatroska v1.7.1
Attachments : poster.jpeg

Видео
Идентификатор : 1
Формат : AVC
Формат/Информация : Advanced Video Codec
Профиль формата : [email protected]
Настройки формата : CABAC / 4 Ref Frames
Параметр CABAC формата : Да
Параметр RefFrames формата : 4 кадра
Идентификатор кодека : V_MPEG4/ISO/AVC
Продолжительность : 57 м. 13 с.
Битрейт : 6 000 Кбит/сек
Ширина : 1 920 пикселей
Высота : 1 080 пикселей
Соотношение сторон : 16:9
Режим частоты кадров : Постоянный
Частота кадров : 25,000 кадров/сек
Цветовое пространство : YUV
Субдискретизация насыщенности : 4:2:0
Битовая глубина : 8 бит
Тип развёртки : Прогрессивная
Бит/(Пиксели*Кадры) : 0.116
Размер потока : 2,34 Гбайт (77%)
Библиотека кодирования : x264 core 157
Настройки программы : cabac=1 / ref=4 / deblock=1:0:0 / analyse=0x3:0x133 / me=umh / subme=10 / psy=1 / psy_rd=1.00:0.00 / mixed_ref=1 / me_range=24 / chroma_me=1 / trellis=2 / 8x8dct=1 / cqm=0 / deadzone=21,11 / fast_pskip=1 / chroma_qp_offset=-2 / threads=34 / lookahead_threads=5 / sliced_threads=0 / nr=0 / decimate=1 / interlaced=0 / bluray_compat=0 / stitchable=1 / constrained_intra=0 / bframes=8 / b_pyramid=2 / b_adapt=2 / b_bias=0 / direct=3 / weightb=1 / open_gop=0 / weightp=2 / keyint=250 / keyint_min=25 / scenecut=40 / intra_refresh=0 / rc_lookahead=60 / rc=2pass / mbtree=1 / bitrate=6000 / ratetol=1.0 / qcomp=0.60 / qpmin=0 / qpmax=69 / qpstep=4 / cplxblur=20.0 / qblur=0.5 / vbv_maxrate=6600 / vbv_bufsize=12000 / nal_hrd=none / filler=0 / ip_ratio=1.40 / aq=1:1.00
Default : Да
Forced : Нет

Аудио #1
Идентификатор : 2
Формат : AC-3
Формат/Информация : Audio Coding 3
Коммерческое название : Dolby Digital
Идентификатор кодека : A_AC3
Продолжительность : 57 м. 13 с.
Вид битрейта : Постоянный
Битрейт : 448 Кбит/сек
Каналы : 6 каналов
Channel layout : L R C LFE Ls Rs
Частота : 48,0 КГц
Частота кадров : 31,250 кадров/сек (1536 SPF)
Метод сжатия : С потерями
Размер потока : 183 Мбайт (6%)
Заголовок : [Censor | 5.1 AC3 Audio]
Язык : Russian
Service kind : Complete Main
Default : Да
Forced : Нет

Аудио #2
Идентификатор : 3
Формат : AC-3
Формат/Информация : Audio Coding 3
Коммерческое название : Dolby Digital
Идентификатор кодека : A_AC3
Продолжительность : 57 м. 13 с.
Вид битрейта : Постоянный
Битрейт : 448 Кбит/сек
Каналы : 6 каналов
Channel layout : L R C LFE Ls Rs
Частота : 48,0 КГц
Частота кадров : 31,250 кадров/сек (1536 SPF)
Метод сжатия : С потерями
Размер потока : 183 Мбайт (6%)
Заголовок : [18+ | 5.1 AC3 Audio]
Язык : Russian
Service kind : Complete Main
Default : Нет
Forced : Нет

Аудио #3
Идентификатор : 4
Формат : E-AC-3
Формат/Информация : Enhanced AC-3
Коммерческое название : Dolby Digital Plus
Идентификатор кодека : A_EAC3
Продолжительность : 57 м. 13 с.
Вид битрейта : Постоянный
Битрейт : 448 Кбит/сек
Каналы : 6 каналов
Channel layout : L R C LFE Ls Rs
Частота : 48,0 КГц
Частота кадров : 31,250 кадров/сек (1536 SPF)
Метод сжатия : С потерями
Размер потока : 183 Мбайт (6%)
Заголовок : [Censor | 5.1 E-AC3 Audio]
Язык : Russian
Service kind : Complete Main
Default : Нет
Forced : Нет

Аудио #4
Идентификатор : 5
Формат : E-AC-3
Формат/Информация : Enhanced AC-3
Коммерческое название : Dolby Digital Plus
Идентификатор кодека : A_EAC3
Продолжительность : 57 м. 13 с.
Вид битрейта : Постоянный
Битрейт : 448 Кбит/сек
Каналы : 6 каналов
Channel layout : L R C LFE Ls Rs
Частота : 48,0 КГц
Частота кадров : 31,250 кадров/сек (1536 SPF)
Метод сжатия : С потерями
Размер потока : 183 Мбайт (6%)
Заголовок : [18+ | 5.1 E-AC3 Audio]
Язык : Russian
Service kind : Complete Main
Default : Нет
Forced : Нет

Текст #1
Идентификатор : 6
Формат : UTF-8
Идентификатор кодека : S_TEXT/UTF8
Идентификатор кодека/Информация : UTF-8 Plain Text
Продолжительность : 54 м. 50 с.
Битрейт : 98 бит/сек
Частота кадров : 0,223 кадр/сек
Count of elements : 734
Размер потока : 39,7 Кбайт (0%)
Заголовок : [Full]
Язык : Russian
Default : Нет
Forced : Нет

Текст #2
Идентификатор : 7
Формат : UTF-8
Идентификатор кодека : S_TEXT/UTF8
Идентификатор кодека/Информация : UTF-8 Plain Text
Продолжительность : 55 м. 56 с.
Битрейт : 114 бит/сек
Частота кадров : 0,259 кадр/сек
Count of elements : 869
Размер потока : 47,1 Кбайт (0%)
Заголовок : [SDH]
Язык : Russian
Default : Нет
Forced : Нет

Внимание! Раздача ведётся путём добавления новых серий; при каждом добавлении создаётся новый торрент.
Чтобы начать докачку новой серии, пользователям необходимо сделать следующее:
1. Остановить скачивание;
2. Удалить старый торрент у себя из клиента (старые серии удалять не надо);
3. Скачать новый торрент и запустить его у себя в клиенте вместо старого, при этом указать клиенту путь в старую папку куда и должно происходить скачивание новых серий. Ваш клиент при этом должен произвести хеширование (проверку) старой папки и будет докачивать только те серии, которых у вас ещё нет. Старые серии при этом не удаляются, а продолжают раздаваться! Eсли вы уже удалили старые серии, то предотвратить повторную закачку старых серий можно, отжав галочку в соответствующих местах при запуске нового торрента.



Скачать Фандорин. Азазель через торрент https://i121.fastpic.org/big/2023/0115/3c/327c40927971e7c9f2ac15d2fc64553c.jpg Скачать, смотреть онлайн Фандорин. Азазель бесплантно в хорошем качестве Описание: Петроград, столица Российский империи, 2023 год. Революция не состоялась, большевики не пришли к власти, а царь Николай III делит ... 8.2 10 10
Торрент: Зарегистрирован [2023-02-23 02:05] · скачан: 135 раз
Статус: √ проверено
Размер: 12.61 GB
Как cкачать? Как скачать Фандорин. Азазель через торрент | UTorrent

% Раздел Тема Автор DL S | L
Наши сериалы [ 4.54 GB ] Фандорин. Азазель / Сезон: 1 / Серии: 1-6 из 6 | | WEBRip bober100 Скачать
6 | 3
Наши сериалы [ 23.49 GB ] Фандорин. Азазель / Сезон: 1 / Серии: 1-6 из 6 | | 2160p, (SDR bober100 Скачать
2 | 0
Наши сериалы [ 4.43 GB ] Фандорин. Азазель / Сезон: 1 / Серии: 1-6 из 6 | | WEBRip-AVC bober100 Скачать
3 | 1



Последний раз редактировалось: bober100 (2023-02-23 02:05), всего редактировалось 6 раз(а)

28-11-2019 20:33  


Отключить вcю реклaмy на сайте, в т.ч. и в плеере онлайн просмотра!

18-01-2023 23:41 Фандорин. Азазель Скачать торрент  

хитрожопые сценаристы обставили мамкиных нытиков жрецов канона, поместив действие в альтернативу)) роскошный и очень интересный ход, я считаю. жаль, не все серии сразу. буду ждать полный сезон



29-01-2023 09:31 Фандорин. Азазель Скачать торрент  

tamburetko писал(а):

хитрожопые сценаристы обставили мамкиных нытиков жрецов канона, поместив действие в альтернативу)) роскошный и очень интересный ход, я считаю. жаль, не все серии сразу. буду ждать полный сезон

Согласен, лишь недавно начал читать данное произведение, в школе помню еще был фильм с одноимённым названием, на тот момент показался весьма захватывающим...



    Дорогой пользователь! Огромная просьба, поблагодарите релизера, оцените раздачу и оставьте свои комментарий, если Вы скачали Фандорин. Азазель через торрент бесплатно!!
    Комментировать посты могут только пользователи прошедшие не сложную регистрацию
    Показать сообщения:    


    Фандорин. Азазель через торрент
    Скачать бесплатно Фандорин. Азазель
    Фандорин. Азазель скачать торрент
    Фандорин. Азазель смотреть онлайн
    Cкачать фильм Фандорин. Азазель бесплатно
    Фандорин. Азазель скачать торрент в хорошем качестве
    Фандорин. Азазель смотреть онлайн бесплатно в хорошем качестве
    Вы не можете начинать темы
    Вы не можете отвечать на сообщения
    Вы не можете редактировать свои сообщения
    Вы не можете удалять свои сообщения
    Вы не можете голосовать в опросах
    Вы не можете прикреплять файлы к сообщениям
    Вы можете скачивать файлы
    Фандорин. Азазель / Сезон: 1 / Серии: 1-6 из 6 [2022, Приключения, детектив, WEBRip 1080p] смотреть онлайн, скачать торрент picoco.icu