Достать ножи: Стеклянная луковица

MVO

Добыча

Дубляж

Уэнсдэй

1 сезон

Тор

Дубляж

13 клиническая

1 сезон

Жестокая ночь

MVO

Одни из нас

1 сезон

Deluxe

pack

Рекомендуем

30

Пиратка

ВАЖНО

ВАЖНО

Ghostwire

Пиратка

jed

RePack

nioh2

RePack

RDR2

RePack

NEED FOR SPEED™ PAYBACK

RePack

скачать торрент

Кинопоиск HD

Острые козырьки 6 сезон

6 сезон

FAR CRY 6

RePack

скачать торрент

Лицензия

скачать торрент

MVO

1

1 сезон

скачать торрент

1 сезон

скачать торрент

Лицензия

  

Одни из нас / The Last of Us / Сезон: 1 / Серии: 1-2 из 9 (Али Аббаси, Джереми Уэбб) [2023, Ужасы, фантастика, боевик, драма, WEB-DL 720p] Дубляж [Red Head Sound] + 7xMVO [Lostfilm, Jaskier, Dubbing-Pro, HDRezka, NewComers, TVShows, LineFilm]

Одни из нас через торрент pb.wtf

Раздают: 8 [ 401 KB/s ] Качают: 2 [ 0 KB/s ]
Размер: 7.51 GB | Добавлен: 23 ч. назад | Торрент скачан:12 раз
Смотреть онлайн | Скачать | Поддержите нас   

19-01-2023 23:28 Одни из нас Скачать торрент  

Одни из нас / The Last of Us
  • Год выпуска: 2023
  • Страна: Канада, США
  • Студия:HBO, Naughty Dog, PlayStation Productions, Sony Pictures Television, Word Games
  • Жанр: Ужасы, фантастический боевик, драма, экранизация
  • Продолжительность: ~ 00:55:00 (Серия)
  • Перевод:
    Профессиональный (полное дублирование) [Red Head Sound]
    Профессиональный многоголосый [LostFilm]
    Профессиональный многоголосый [Jaskier]
    Профессиональный многоголосый [Dubbing-Pro]
    Профессиональный многоголосый [HDRezka]
    Профессиональный многоголосый [NewComers]
    Профессиональный многоголосый [TVShows]
    Профессиональный многоголосый [LineFilm]
  • Субтитры: Русские (Forced, Full)
    Режиссер: Али Аббаси, Джереми Уэбб, Нил Дракманн
  • В ролях:
    Педро Паскаль, Белла Рэмси, Гэбриел Луна, Ник Офферман, Кон О`Нилл, Мерл Дэндридж, Джеффри Пирс, Анна Торв, Мюррэй Бартлетт, Марли Грэйс Бекер, Мелани Лински, Эшли Джонсон, Джанни Калькетти, Трой Бэйкер, Сторм Рейд и другие
  • Описание:
    Телесериал - антология является коллекцией лично отборных обладателями Оскара, историй в равной степени изощрённых и ужасающих. Причудливые кошмары разворачиваются в этой зрелищной коллекции из восьми леденящих кровь историй.
  • Рейтинг:

    rating


  • Качество: WEB-DL 720p
  • Формат: :MKV
  • Видео кодек: AVC
  • Аудио кодек: AC3
  • Видео: 3414 Кбит/сек, 1280*720 (16:9), в 23,976 (24000/1001) кадра/сек, AVC
  • Аудио №1: Русский 448 Кбит/сек, 48,0 КГц, 16 бит, 6 каналов, AC-3|[Red Head Sound]| Серии - 1-2 - 18+
  • Аудио №2: Русский 384 Кбит/сек, 48,0 КГц, 16 бит, 2 канала, AC-3|[LostFilm]| Серии - 1-2
  • Аудио №3: Русский 384 Кбит/сек, 48,0 КГц, 16 бит, 6 каналов, AC-3|[Jaskier]| Серии - 1-2 - 18+
  • Аудио №4: Русский 448 Кбит/сек, 48,0 КГц, 16 бит, 6 каналов, AC-3|[Dubbing-Pro]| Серии - 1-2
  • Аудио №5: Русский 448 Кбит/сек, 48,0 КГц, 16 бит, 6 каналов, AC-3|[HDRezka]| Серии - 1-2
  • Аудио №6: Русский 448 Кбит/сек, 48,0 КГц, 16 бит, 6 каналов, AC-3|[HDRezka]| Серии - 1-2 - 18+
  • Аудио №7: Русский 448 Кбит/сек, 48,0 КГц, 16 бит, 6 каналов, AC-3|[NewComers]| Серии - 1-2 - 18+
  • Аудио №8: Русский 192 Кбит/сек, 48,0 КГц, 16 бит, 2 канала, AC-3|[TVShows]| Серии - 1-2
  • Аудио №9: Русский 384 Кбит/сек, 48,0 КГц, 16 бит, 2 канала, AC-3|[LineFilm]| Серии - 1-2 - 18+
  • Аудио №10: Английский 768 Кбит/сек, 48,0 КГц, 16 бит, 6 каналов, AC-3+
    Общее
    Уникальный идентификатор : 281890477398036679682550783542756278970 (0xD4122192C63D62326F8B000CC4E682BA)
    Полное имя : F:\Одни из нас (The Last of Us) Сезон 1\Одни из нас - The Last of Us S01E01 (Когда ты теряешься в темноте) WEB-DL 720p.mkv
    Формат : Matroska
    Версия формата : Version 4
    Размер файла : 4,50 Гбайт
    Продолжительность : 1 ч. 20 м.
    Общий поток : 7959 Кбит/сек
    Дата кодирования : UTC 2023-01-19 23:06:07
    Программа кодирования : mkvmerge v72.0.0 ('Minuano (Six-eight)') 64-bit
    Библиотека кодирования : libebml v1.4.4 + libmatroska v1.7.1
    Attachments : The Last of Us.png

    Видео
    Идентификатор : 1
    Формат : AVC
    Формат/Информация : Advanced Video Codec
    Профиль формата : [email protected]
    Настройки формата : CABAC / 4 Ref Frames
    Параметр CABAC формата : Да
    Параметр RefFrames формата : 4 кадра
    Идентификатор кодека : V_MPEG4/ISO/AVC
    Продолжительность : 1 ч. 20 м.
    Вид битрейта : Постоянный
    Битрейт : 3414 Кбит/сек
    Номинальный битрейт : 4000 Кбит/сек
    Ширина : 1280 пикселей
    Высота : 720 пикселей
    Соотношение сторон : 16:9
    Режим частоты кадров : Постоянный
    Частота кадров : 23,976 (24000/1001) кадра/сек
    Цветовое пространство : YUV
    Субдискретизация насыщенности : 4:2:0
    Битовая глубина : 8 бит
    Тип развёртки : Прогрессивная
    Бит/(Пиксели*Кадры) : 0.155
    Размер потока : 1,93 Гбайт (43%)
    Язык : English
    Default : Да
    Forced : Нет
    Цветовой диапазон : Limited
    Основные цвета : BT.709
    Характеристики трансфера : BT.709
    Коэффициенты матрицы : BT.709

    Аудио #1
    Идентификатор : 2
    Формат : AC-3
    Формат/Информация : Audio Coding 3
    Коммерческое название : Dolby Digital
    Идентификатор кодека : A_AC3
    Продолжительность : 1 ч. 20 м.
    Вид битрейта : Постоянный
    Битрейт : 448 Кбит/сек
    Каналы : 6 каналов
    ChannelLayout : L R C LFE Ls Rs
    Частота : 48,0 КГц
    Частота кадров : 31,250 кадров/сек (1536 SPF)
    Битовая глубина : 16 бит
    Метод сжатия : С потерями
    Размер потока : 259 Мбайт (6%)
    Заголовок : Red Head Sound
    Язык : Russian
    ServiceKind/String : Complete Main
    Default : Да
    Forced : Нет

    Аудио #2
    Идентификатор : 3
    Формат : AC-3
    Формат/Информация : Audio Coding 3
    Коммерческое название : Dolby Digital
    Идентификатор кодека : A_AC3
    Продолжительность : 1 ч. 20 м.
    Вид битрейта : Постоянный
    Битрейт : 384 Кбит/сек
    Каналы : 2 канала
    ChannelLayout : L R
    Частота : 48,0 КГц
    Частота кадров : 31,250 кадров/сек (1536 SPF)
    Битовая глубина : 16 бит
    Метод сжатия : С потерями
    Размер потока : 222 Мбайт (5%)
    Заголовок : LostFilm
    Язык : Russian
    ServiceKind/String : Complete Main
    Default : Нет
    Forced : Нет

    Аудио #3
    Идентификатор : 4
    Формат : AC-3
    Формат/Информация : Audio Coding 3
    Коммерческое название : Dolby Digital
    Идентификатор кодека : A_AC3
    Продолжительность : 1 ч. 20 м.
    Вид битрейта : Постоянный
    Битрейт : 448 Кбит/сек
    Каналы : 6 каналов
    ChannelLayout : L R C LFE Ls Rs
    Частота : 48,0 КГц
    Частота кадров : 31,250 кадров/сек (1536 SPF)
    Битовая глубина : 16 бит
    Метод сжатия : С потерями
    Размер потока : 259 Мбайт (6%)
    Заголовок : Jaskier (18+)
    Язык : Russian
    ServiceKind/String : Complete Main
    Default : Нет
    Forced : Нет

    Аудио #4
    Идентификатор : 5
    Формат : AC-3
    Формат/Информация : Audio Coding 3
    Коммерческое название : Dolby Digital
    Идентификатор кодека : A_AC3
    Продолжительность : 1 ч. 20 м.
    Вид битрейта : Постоянный
    Битрейт : 384 Кбит/сек
    Каналы : 6 каналов
    ChannelLayout : L R C LFE Ls Rs
    Частота : 48,0 КГц
    Частота кадров : 31,250 кадров/сек (1536 SPF)
    Битовая глубина : 16 бит
    Метод сжатия : С потерями
    Размер потока : 222 Мбайт (5%)
    Заголовок : Dubbing-Pro
    Язык : Russian
    ServiceKind/String : Complete Main
    Default : Нет
    Forced : Нет

    Аудио #5
    Идентификатор : 6
    Формат : AC-3
    Формат/Информация : Audio Coding 3
    Коммерческое название : Dolby Digital
    Идентификатор кодека : A_AC3
    Продолжительность : 1 ч. 20 м.
    Вид битрейта : Постоянный
    Битрейт : 448 Кбит/сек
    Каналы : 6 каналов
    ChannelLayout : L R C LFE Ls Rs
    Частота : 48,0 КГц
    Частота кадров : 31,250 кадров/сек (1536 SPF)
    Битовая глубина : 16 бит
    Метод сжатия : С потерями
    Размер потока : 259 Мбайт (6%)
    Заголовок : HDRezka
    Язык : Russian
    ServiceKind/String : Complete Main
    Default : Нет
    Forced : Нет

    Аудио #6
    Идентификатор : 7
    Формат : AC-3
    Формат/Информация : Audio Coding 3
    Коммерческое название : Dolby Digital
    Идентификатор кодека : A_AC3
    Продолжительность : 1 ч. 20 м.
    Вид битрейта : Постоянный
    Битрейт : 448 Кбит/сек
    Каналы : 6 каналов
    ChannelLayout : L R C LFE Ls Rs
    Частота : 48,0 КГц
    Частота кадров : 31,250 кадров/сек (1536 SPF)
    Битовая глубина : 16 бит
    Метод сжатия : С потерями
    Размер потока : 259 Мбайт (6%)
    Заголовок : HDRezka (18+)
    Язык : Russian
    ServiceKind/String : Complete Main
    Default : Нет
    Forced : Нет

    Аудио #7
    Идентификатор : 8
    Формат : AC-3
    Формат/Информация : Audio Coding 3
    Коммерческое название : Dolby Digital
    Идентификатор кодека : A_AC3
    Продолжительность : 1 ч. 20 м.
    Вид битрейта : Постоянный
    Битрейт : 640 Кбит/сек
    Каналы : 6 каналов
    ChannelLayout : L R C LFE Ls Rs
    Частота : 48,0 КГц
    Частота кадров : 31,250 кадров/сек (1536 SPF)
    Битовая глубина : 16 бит
    Метод сжатия : С потерями
    Размер потока : 370 Мбайт (8%)
    Заголовок : NewComers (18+)
    Язык : Russian
    ServiceKind/String : Complete Main
    Default : Нет
    Forced : Нет

    Аудио #8
    Идентификатор : 9
    Формат : AC-3
    Формат/Информация : Audio Coding 3
    Коммерческое название : Dolby Digital
    Идентификатор кодека : A_AC3
    Продолжительность : 1 ч. 20 м.
    Вид битрейта : Постоянный
    Битрейт : 192 Кбит/сек
    Каналы : 2 канала
    ChannelLayout : L R
    Частота : 48,0 КГц
    Частота кадров : 31,250 кадров/сек (1536 SPF)
    Битовая глубина : 16 бит
    Метод сжатия : С потерями
    Размер потока : 111 Мбайт (2%)
    Заголовок : TVShows
    Язык : Russian
    ServiceKind/String : Complete Main
    Default : Нет
    Forced : Нет

    Аудио #9
    Идентификатор : 10
    Формат : AC-3
    Формат/Информация : Audio Coding 3
    Коммерческое название : Dolby Digital
    Идентификатор кодека : A_AC3
    Продолжительность : 1 ч. 20 м.
    Вид битрейта : Постоянный
    Битрейт : 384 Кбит/сек
    Каналы : 2 канала
    ChannelLayout : L R
    Частота : 48,0 КГц
    Частота кадров : 31,250 кадров/сек (1536 SPF)
    Битовая глубина : 16 бит
    Метод сжатия : С потерями
    Размер потока : 222 Мбайт (5%)
    Заголовок : LineFilm (18+)
    Язык : Russian
    ServiceKind/String : Complete Main
    Default : Нет
    Forced : Да

    Аудио #10
    Идентификатор : 11
    Формат : E-AC-3 JOC
    Формат/Информация : Enhanced AC-3 with Joint Object Coding
    Коммерческое название : Dolby Digital Plus with Dolby Atmos
    Идентификатор кодека : A_EAC3
    Продолжительность : 1 ч. 20 м.
    Вид битрейта : Постоянный
    Битрейт : 768 Кбит/сек
    Каналы : 6 каналов
    ChannelLayout : L R C LFE Ls Rs
    Частота : 48,0 КГц
    Частота кадров : 31,250 кадров/сек (1536 SPF)
    Метод сжатия : С потерями
    Размер потока : 444 Мбайт (10%)
    Заголовок : ENG
    Язык : English
    ServiceKind/String : Complete Main
    Default : Нет
    Forced : Нет
    ComplexityIndex : 16
    NumberOfDynamicObjects : 15
    BedChannelCount/String : 1 канал
    BedChannelConfiguration : LFE

    Текст #1
    Идентификатор : 12
    Формат : UTF-8
    Идентификатор кодека : S_TEXT/UTF8
    Идентификатор кодека/Информация : UTF-8 Plain Text
    Продолжительность : 1 ч. 14 м.
    Битрейт : 2 бит/сек
    ElementCount : 29
    Размер потока : 1,42 Кбайт (0%)
    Заголовок : Forced
    Язык : Russian
    Default : Да
    Forced : Нет

    Текст #2
    Идентификатор : 13
    Формат : UTF-8
    Идентификатор кодека : S_TEXT/UTF8
    Идентификатор кодека/Информация : UTF-8 Plain Text
    Продолжительность : 1 ч. 20 м.
    Битрейт : 68 бит/сек
    ElementCount : 968
    Размер потока : 40,5 Кбайт (0%)
    Заголовок : Full
    Язык : Russian
    Default : Нет
    Forced : Нет
    Внимание! Раздача ведётся путём добавления новых серий; при каждом добавлении создаётся новый торрент. Чтобы начать докачку новой серии, пользователям необходимо сделать следующее:
    (1) остановить скачивание,
    (2) удалить старый торрент у себя из клиента (старые серии удалять не надо),
    (3) скачать новый торрент и запустить его у себя в клиенте вместо старого, при этом указать клиенту путь в старую папку куда и должно происходить скачивание новых серий.

    Ваш клиент при этом должен произвести хеширование (проверку) старой папки (если не производит сам - помогите ему сделать это), и будет докачивать только те серии которых у вас ещё нет. Старые серии при этом не удаляются, а продолжают раздаваться!

    Eсли вы уже удалили старые серии, то предотвратить повторную закачку старых серий можно, отжав галочку в соответствующих местах при запуске нового торрента. По возможности, желательно не удалять старые серии как можно дольше чтобы релизёр не столько продолжал раздавать старые серии, а смог сконцентрироваться на новых.



    Скриншоты:
    скриншот   скриншот   скриншот   скриншот   скриншот  



  • Скачать Одни из нас через торрент https://i1-imageban-ru.translate.goog/out/2023/01/17/039663f876c03d5d83f576eab080ad78.png Скачать, смотреть онлайн Одни из нас бесплантно в хорошем качестве Описание: Телесериал - антология является коллекцией лично отборных обладателями Оскара, историй в равной степени изощрённых и ужасающих. ... 9.5 10 8
    Info! Золотая раздача, скачанное не засчитывается.
    Торрент: Зарегистрирован [2023-01-25 22:51] · скачан: 12 раз
    Статус: не проверено
    Размер: 7.51 GB
    Как cкачать? Как скачать Одни из нас через торрент | UTorrent

    % Раздел Тема Автор DL S | L
    Зарубежные сериалы [ 8.92 GB ] Одни из нас / The Last of Us / Сезон: 1 / Серии: 1-2 из 9 | Дубляж | 1080p bober100 Скачать
    21 | 10
    * Оформление раздач (Наши, Зарубежные Сериалы) [ 17.7 GB ] Одни из нас / The Last of Us / Сезон: 1 / Серии: 1-2 из 9 | MVO | 2160p laniko Скачать
    6 | 4
    Зарубежные сериалы [ 18.22 GB ] Одни из нас / The Last of Us / Сезон: 1 / Серии: 1-2 из 9 | MVO | 2160p bober100 Скачать
    9 | 18
    Зарубежные сериалы [ 8.98 GB ] Одни из нас / The Last of Us / Сезон: 1 / Серии: 1-2 из 9 | MVO | 1080p bober100 Скачать
    24 | 30
    Зарубежные сериалы [ 6.19 GB ] Одни из нас / The Last of Us / Сезон: 1 / Серии: 1 из 9 | TVShows | 1080p bober100 Скачать
    22 | 0
    Зарубежные сериалы [ 1000 MB ] Одни из нас / The Last of Us / Сезон: 1 / Серии: 1 из 9 | Дубляж | DLRip bober100 Скачать
    4 | 0
    Зарубежные сериалы [ 2.88 GB ] Одни из нас / The Last of Us / Сезон: 1 / Серии: 1-2 из 9 | MVO | DLRip-AVC bober100 Скачать
    13 | 4



    Последний раз редактировалось: GEKADOL (2023-01-23 23:10), всего редактировалось 1 раз

    28-11-2019 20:33  


    Отключить вcю реклaмy на сайте, в т.ч. и в плеере онлайн просмотра!

      Дорогой пользователь! Огромная просьба, поблагодарите релизера, оцените раздачу и оставьте свои комментарий, если Вы скачали Одни из нас через торрент бесплатно!!
      Комментировать посты могут только пользователи прошедшие не сложную регистрацию
      Показать сообщения:    


      Одни из нас через торрент
      Скачать бесплатно Одни из нас
      Одни из нас скачать торрент
      Одни из нас смотреть онлайн
      Cкачать фильм Одни из нас бесплатно
      Одни из нас скачать торрент в хорошем качестве
      Одни из нас смотреть онлайн бесплатно в хорошем качестве
      Вы не можете начинать темы
      Вы не можете отвечать на сообщения
      Вы не можете редактировать свои сообщения
      Вы не можете удалять свои сообщения
      Вы не можете голосовать в опросах
      Вы не можете прикреплять файлы к сообщениям
      Вы можете скачивать файлы
      Одни из нас / The Last of Us / Сезон: 1 / Серии: 1-2 из 9 [2023, Ужасы, фантастика, боевик, драма, WEB-DL 720p] Дубляж [Red Head Sound] + 7xMVO [Lostfilm, Jaskier, Dubbing-Pro, HDRezka, NewComers, TVShows, LineFilm] смотреть онлайн, скачать торрент picoco.icu