Достать ножи: Стеклянная луковица

MVO

Добыча

Дубляж

Уэнсдэй

1 сезон

Тор

Дубляж

13 клиническая

1 сезон

Жестокая ночь

MVO

Одни из нас

1 сезон

Deluxe

pack

Рекомендуем

30

Пиратка

ВАЖНО

ВАЖНО

Ghostwire

Пиратка

jed

RePack

nioh2

RePack

RDR2

RePack

NEED FOR SPEED™ PAYBACK

RePack

скачать торрент

Кинопоиск HD

Острые козырьки 6 сезон

6 сезон

FAR CRY 6

RePack

скачать торрент

Лицензия

скачать торрент

MVO

1

1 сезон

скачать торрент

1 сезон

скачать торрент

Лицензия

  

Sperma Anal - Ass Full of Cum (John Thompson) [2003 г., All Sex, Bukkake, GangBang, Anal, Big Tits, DVD5]

Sperma Anal - Ass Full of Cum через торрент pb.wtf

Раздают: 1 [ 0 KB/s ] Качают: 1 [ 0 KB/s ]
Размер: 3.96 GB | Добавлен: 1 д. 15 ч. назад | Торрент скачан:51 раз
| Скачать | Поддержите нас   

25-01-2023 14:06 Sperma Anal - Ass Full of Cum Скачать торрент  

Sperma Anal - Ass Full of Cum
Год выпуска: 2003
Страна: Europe
Жанр: All Sex, Bukkake, GangBang, Anal, Big Tits
Продолжительность: 01:15:00

Режиссер: John Thompson

В ролях: Grace Cat, Monika, Annette Schwarz

Качество: DVD5
Формат: DVD Video
Видео кодек: MPEG2
Аудио кодек: AC3
Видео: 720x576, MPEG 2, 5376 Кбит/сек
Аудио: Английский, AC3, 2 ch, 192 Кбит/сек
Видео
Идентификатор : 224 (0xE0)
Формат : MPEG Video
Версия формата : Version 2
Профиль формата : [email protected]
Настройки формата : BVOP
Параметр BVOP формата : Да
Параметр матрицы формата : По умолчанию
Параметр GOP формата : Variable
Структура изображения : Frame
Продолжительность : 26 м. 9 с.
Вид битрейта : Переменный
Битрейт : 5172 Кбит/сек
Максимальный битрейт : 8800 Кбит/сек
Ширина : 720 пикселей
Высота : 576 пикселей
Соотношение сторон : 4:3
Частота кадров : 25,000 кадров/сек
Стандарт вещания : PAL
Цветовое пространство : YUV
Субдискретизация насыщенности : 4:2:0
Битовая глубина : 8 бит
Тип развёртки : Чересстрочная
Порядок развёртки : Верхнее поле первое
Метод сжатия : С потерями
Бит/(Пиксели*Кадры) : 0.499
Временной код первого кадра : 09:59:59:15
Оригинал временного кода : Group of pictures header
GOP, открыто/закрыто : Открыто
Размер потока : 968 Мбайт (95%)
Основные цвета : BT.601 PAL
Характеристики трансфера : BT.470 System B/G
Коэффициенты матрицы : BT.470 System B/G

Аудио
Идентификатор : 189 (0xBD)-128 (0x80)
Формат : AC-3
Формат/Информация : Audio Coding 3
Коммерческое название : Dolby Digital
Режим смешивания : DVD-Video
Продолжительность : 26 м. 9 с.
Вид битрейта : Постоянный
Битрейт : 192 Кбит/сек
Каналы : 2 канала
ChannelLayout : L R
Частота : 48,0 КГц
Частота кадров : 31,250 кадров/сек (1536 SPF)
Метод сжатия : С потерями
Размер потока : 35,9 Мбайт (4%)
ServiceKind/String : Complete Main




pack Скачать Sperma Anal - Ass Full of Cum через торрент https://i121.fastpic.org/big/2023/0125/6c/563f2dce471fd98a53a5f653635c526c.jpg Скачать, смотреть онлайн Sperma Anal - Ass Full of Cum бесплантно в хорошем качестве В ролях: Grace Cat, Monika, Annette ... 9 10 2
Info! Золотая раздача, скачанное не засчитывается.
Торрент: Зарегистрирован [2023-01-25 14:06] · скачан: 51 раз
Статус: √ проверено
Размер: 3.96 GB
Как cкачать? Как скачать Sperma Anal - Ass Full of Cum через торрент | UTorrent

28-11-2019 20:33  


Отключить вcю реклaмy на сайте, в т.ч. и в плеере онлайн просмотра!

    Дорогой пользователь! Огромная просьба, поблагодарите релизера, оцените раздачу и оставьте свои комментарий, если Вы скачали Sperma Anal - Ass Full of Cum через торрент бесплатно!!
    Комментировать посты могут только пользователи прошедшие не сложную регистрацию
    Показать сообщения:    


    Sperma Anal - Ass Full of Cum через торрент
    Скачать бесплатно Sperma Anal - Ass Full of Cum
    Sperma Anal - Ass Full of Cum скачать торрент
    Sperma Anal - Ass Full of Cum смотреть онлайн
    Cкачать фильм Sperma Anal - Ass Full of Cum бесплатно
    Sperma Anal - Ass Full of Cum скачать торрент в хорошем качестве
    Sperma Anal - Ass Full of Cum смотреть онлайн бесплатно в хорошем качестве
    Вы не можете начинать темы
    Вы не можете отвечать на сообщения
    Вы не можете редактировать свои сообщения
    Вы не можете удалять свои сообщения
    Вы не можете голосовать в опросах
    Вы не можете прикреплять файлы к сообщениям
    Вы можете скачивать файлы
    Sperma Anal - Ass Full of Cum [2003 г., All Sex, Bukkake, GangBang, Anal, Big Tits, DVD5] смотреть онлайн, скачать торрент picoco.icu