Архив 81

1 сезон

Добыча

Дубляж

Тед Лассо

3 сезон

Тор

1 сезон

13 клиническая

3 сезон

Жестокая ночь

Дубляж

Одни из нас

1s 9e

Premium

Premium

Deluxe

Deluxe

pack

Рекомендуем

30

Repack

ВАЖНО

ВАЖНО

Ghostwire

Пиратка

jed

RePack

nioh2

RePack

RDR2

RePack

NEED FOR SPEED™ PAYBACK

RePack

скачать торрент

Кинопоиск HD

Острые козырьки 6 сезон

6 сезон

FAR CRY 6

RePack

скачать торрент

Лицензия

скачать торрент

MVO

1

1 сезон

скачать торрент

1 сезон

скачать торрент

Лицензия

  

Тюрьма 77 / Modelo 77 / Prison 77 (Альберто Родригес) [2022, Триллер, BDRip 1080p] MVO [Кипарис / КиноПоиск HD]

Тюрьма 77 через торрент pb.wtf

Раздают: 5 [ 217 KB/s ] Качают: 1 [ 0 KB/s ]
Размер: 15.28 GB | Добавлен: 1 мес. 5 д. назад | Торрент скачан:68 раз
Смотреть онлайн | Скачать | Поддержите нас   

26-01-2023 18:22 Тюрьма 77 Скачать торрент  

Тюрьма 77
Modelo 77 / Prison 77

Год выпуска: 2022
Страна: Испания
Выпущено: Atípica Films, Movistar+
Жанр: Триллер
Продолжительность: 02:05:33
Перевод: Профессиональный (многоголосый) | Кипарис / КиноПоиск HD
Субтитры: Русские (Full), английские

Режиссер: Альберто Родригес

rating

В ролях: Мигель Эрран, Хавьер Гутьеррес, Хесус Карроса, Каталина Сопелана, Фернандо Техеро, Хави Саес, Виктор Кастилья, Альфонсо Лара, Иньиго де ла Иглесиа, Иньиго Арамбуру

Описание: 1977 год. Бухгалтер Мануэль несправедливо приговорен к 20 годам лишения свободы. При помощи своего сокамерника он станет лидером движения, которое объединит все тюрьмы в борьбе за свою свободу и изменит тюремные законы и общество навсегда.

Качество: BDRip 1080p
Формат: MKV

Видео: MPEG-4 AVC, 15.5 Mb/s, 1920x804, 24 fps
Аудио #01: 48 kHz, AC3, 5.1, 448 Kbps | Профессиональный (многоголосый) | Кипарис | RUS |
Аудио #02: 48 kHz, Е-AC3, 5.1, 448 Kbps | Профессиональный (многоголосый) | Кипарис | RUS |
Аудио #03: 48 kHz, Е-AC3, 5.1, 1024 Kbps | Оригинал | SPA |
скриншот  скриншот  скриншот  скриншот  

Complete name: Tyurma.77.2022.BDRip.1080p.ELEKTRI4KA.UNIONGANG.mkv
Format: Matroska
Format version: Version 4
File size: 15.3 GiB
Duration: 2 h 5 min
Overall bit rate: 17.4 Mb/s
Movie name: Tyurma.77.2022.BDRip.1080p.ELEKTRI4KA.UNIONGANG.
Encoded date: UTC 2023-02-16 11:28:03
Writing application: mkvmerge v8.3.0 ('Over the Horizon') 64bit
Writing library: libebml v1.3.1 + libmatroska v1.4.2

Video
ID: 1
Format: AVC
Format/Info: Advanced Video Codec
Format profile: [email protected]
Format settings: CABAC / 5 Ref Frames
Format settings, CABAC: Yes
Format settings, Reference frames: 5 frames
Codec ID: V_MPEG4/ISO/AVC
Duration: 2 h 5 min
Bit rate: 15.5 Mb/s
Width: 1 920 pixels
Height: 804 pixels
Display aspect ratio: 2.40:1
Frame rate mode: Constant
Frame rate: 24.000 FPS
Color space: YUV
Chroma subsampling: 4:2:0
Bit depth: 8 bits
Scan type: Progressive
Bits/(Pixel*Frame): 0.418
Stream size: 13.6 GiB (89%)
Writing library: x264 core 164 r3094 bfc87b7
Encoding settings: cabac=1 / ref=5 / deblock=1:-3:-3 / analyse=0x3:0x133 / me=umh / subme=10 / psy=1 / psy_rd=1.02:0.00 / mixed_ref=1 / me_range=32 / chroma_me=1 / trellis=2 / 8x8dct=1 / cqm=0 / deadzone=21, 11 / fast_pskip=0 / chroma_qp_offset=-2 / threads=18 / lookahead_threads=3 / sliced_threads=0 / nr=0 / decimate=0 / interlaced=0 / bluray_compat=0 / constrained_intra=0 / bframes=9 / b_pyramid=2 / b_adapt=2 / b_bias=0 / direct=3 / weightb=1 / open_gop=0 / weightp=2 / keyint=250 / keyint_min=24 / scenecut=40 / intra_refresh=0 / rc_lookahead=250 / rc=crf / mbtree=0 / crf=18.1 / qcomp=0.60 / qpmin=0 / qpmax=69 / qpstep=4 / vbv_maxrate=62500 / vbv_bufsize=78125 / crf_max=0.0 / nal_hrd=none / filler=0 / ip_ratio=1.30 / pb_ratio=1.20 / aq=3:0.80 / zones=173564, 180781, b=0.5
Default: Yes
Forced: No
Color range: Limited
Color primaries: BT.709
Matrix coefficients: BT.709

Audio #1
ID: 2
Format: AC-3
Format/Info: Audio Coding 3
Commercial name: Dolby Digital
Codec ID: A_AC3
Duration: 2 h 5 min
Bit rate mode: Constant
Bit rate: 448 kb/s
Channel(s): 6 channels
Channel layout: L R C LFE Ls Rs
Sampling rate: 48.0 kHz
Frame rate: 31.250 FPS (1536 SPF)
Compression mode: Lossy
Stream size: 402 MiB (3%)
Title: MVO AC3 (Kiparis)
Language: Russian
Service kind: Complete Main
Default: Yes
Forced: Yes

Audio #2
ID: 3
Format: E-AC-3
Format/Info: Enhanced AC-3
Commercial name: Dolby Digital Plus
Codec ID: A_EAC3
Duration: 2 h 5 min
Bit rate mode: Constant
Bit rate: 448 kb/s
Channel(s): 6 channels
Channel layout: L R C LFE Ls Rs
Sampling rate: 48.0 kHz
Frame rate: 31.250 FPS (1536 SPF)
Compression mode: Lossy
Stream size: 402 MiB (3%)
Title: MVO EAC3 (Kiparis)
Language: Russian
Service kind: Complete Main
Default: No
Forced: No

Audio #3
ID: 4
Format: E-AC-3
Format/Info: Enhanced AC-3
Commercial name: Dolby Digital Plus
Codec ID: A_EAC3
Duration: 2 h 5 min
Bit rate mode: Constant
Bit rate: 1 024 kb/s
Channel(s): 6 channels
Channel layout: L R C LFE Ls Rs
Sampling rate: 48.0 kHz
Frame rate: 31.250 FPS (1536 SPF)
Compression mode: Lossy
Stream size: 919 MiB (6%)
Title: Original
Language: Spanish
Service kind: Complete Main
Default: No
Forced: No

Text #1
ID: 5
Format: UTF-8
Codec ID: S_TEXT/UTF8
Codec ID/Info: UTF-8 Plain Text
Duration: 2 h 0 min
Bit rate: 69 b/s
Frame rate: 0.180 FPS
Count of elements: 1299
Stream size: 61.5 KiB (0%)
Title: Full
Language: Russian
Default: No
Forced: No

Text #2
ID: 6
Format: UTF-8
Codec ID: S_TEXT/UTF8
Codec ID/Info: UTF-8 Plain Text
Duration: 2 h 0 min
Bit rate: 44 b/s
Frame rate: 0.201 FPS
Count of elements: 1449
Stream size: 39.1 KiB (0%)
Title: English
Language: English
Default: No
Forced: No

Menu
00:00:00.000: en:Chapter 1
00:13:12.500: en:Chapter 2
00:24:02.750: en:Chapter 3
00:38:03.000: en:Chapter 4
00:48:01.500: en:Chapter 5
00:57:05.750: en:Chapter 6
01:09:28.000: en:Chapter 7
01:23:56.000: en:Chapter 8
01:35:51.250: en:Chapter 9
01:46:19.250: en:Chapter 10
02:00:33.750: en:Chapter 11
02:05:31.500: en:Chapter 12




Скачать Тюрьма 77 через торрент https://i121.fastpic.org/big/2023/0217/36/20a7b9af79c182ae4890050352af1c36.jpg Скачать, смотреть онлайн Тюрьма 77 бесплантно в хорошем качестве Описание: 1977 год. Бухгалтер Мануэль несправедливо приговорен к 20 годам лишения свободы. При помощи своего сокамерника он станет лидером ... 9.3 10 16
Info! Золотая раздача, скачанное не засчитывается.
Торрент: Зарегистрирован [2023-02-17 01:58] · скачан: 68 раз
Статус: √ проверено
Размер: 15.28 GB
Как cкачать? Как скачать Тюрьма 77 через торрент | UTorrent

% Раздел Тема Автор DL S | L
Фильмы (Blu-ray, BD-Remux, HDDVD) [ 24.01 GB ] Тюрьма 77 / Modelo 77 / Prison 77 | Кипарис | BD Remux 1080p bober100 Скачать
3 | 0
Фильмы [HD 720p, 1080p] (Хороший звук DUB, MVO) [ 4.46 GB ] Тюрьма 77 / Modelo 77 / Prison 77 | Кипарис | 720p bober100 Скачать
5 | 0
Фильмы 2022-2023 [DVDrip, WEB-DLRip, HDrip] (DUB, MVO) [ 2.05 GB ] Тюрьма 77 / Modelo 77 | Кипарис | DLRip bober100 Скачать
8 | 1



Последний раз редактировалось: bober100 (2023-02-17 02:01), всего редактировалось 2 раз(а)

28-11-2019 20:33  


Отключить вcю реклaмy на сайте, в т.ч. и в плеере онлайн просмотра!

27-01-2023 12:42 Тюрьма 77 Скачать торрент  

Испанский Вор?



27-01-2023 12:43 Тюрьма 77 Скачать торрент  

Шакро пожилой)



27-01-2023 15:33 Тюрьма 77 Скачать торрент  

главный герой - один из героев сериала Бумажный дом



31-01-2023 14:49 Тюрьма 77 Скачать торрент  

отличный фильм,рекомендую!!!



    Дорогой пользователь! Огромная просьба, поблагодарите релизера, оцените раздачу и оставьте свои комментарий, если Вы скачали Тюрьма 77 через торрент бесплатно!!
    Комментировать посты могут только пользователи прошедшие не сложную регистрацию
    Показать сообщения:    


    Тюрьма 77 через торрент
    Скачать бесплатно Тюрьма 77
    Тюрьма 77 скачать торрент
    Тюрьма 77 смотреть онлайн
    Cкачать фильм Тюрьма 77 бесплатно
    Тюрьма 77 скачать торрент в хорошем качестве
    Тюрьма 77 смотреть онлайн бесплатно в хорошем качестве
    Вы не можете начинать темы
    Вы не можете отвечать на сообщения
    Вы не можете редактировать свои сообщения
    Вы не можете удалять свои сообщения
    Вы не можете голосовать в опросах
    Вы не можете прикреплять файлы к сообщениям
    Вы можете скачивать файлы
    Тюрьма 77 / Modelo 77 / Prison 77 [2022, Триллер, BDRip 1080p] MVO [Кипарис / КиноПоиск HD] смотреть онлайн, скачать торрент picoco.icu