Аватар: Путь воды

Лицензия

Сансара

1 сезон

скачать смотреть онлайн John Wick Chapter 4

MVO

Крик 6

Дубляж

13 клиническая

3 сезон

Восстание зловещих мертвецов

Дубляж

Одни из нас

Дубляж

Dead Island 2 Gold

Gold

Deluxe

Deluxe

pack

Рекомендуем

ВАЖНО

ВАЖНО

30

Repack

The Lord of the Rings: Gollum

Лицензия

jed

RePack

nioh2

RePack

RDR2

RePack

NEED FOR SPEED™ PAYBACK

RePack

скачать торрент

Кинопоиск HD

Острые козырьки 6 сезон

6 сезон

FAR CRY 6

RePack

скачать торрент

Лицензия

скачать торрент

MVO

1

1 сезон

скачать торрент

1 сезон

скачать торрент

Лицензия

  

Тачки / Cars (Джон Лассетер, Джо Рэнфт) [2006 г., мультфильм,семейный, BDRip 720p / 60 FPS Дубляж]

Тачки через торрент pb.wtf

Раздают: 1 [ 0 KB/s ]
Размер: 3.57 GB | Добавлен: 3 мес. 14 д. назад | Торрент скачан:20 раз
Смотреть онлайн | Скачать | Поддержите нас   

16-02-2023 09:49 Тачки Скачать торрент  

Тачки / Cars
Год выпуска: 2006
Страна: США
Жанр: мультфильм,семейный
Продолжительность: 01:56:35
Перевод: Дубляж

Режиссер: Джон Лассетер, Джо Рэнфт

Премьера в мире: 14 марта 2006

rating

В ролях: Оуэн Уилсон, Пол Ньюман, Бонни Хант, Ларри-кабельщик, Чич Марин, Тони Шэлуб, Гуидо Куарони, Дженифер Льюис, Пол Дули, Майкл Уоллис

Описание: Неукротимый в своем желании всегда и во всем побеждать гоночный автомобиль «Молния» Маккуин вдруг обнаруживает, что сбился с пути и застрял в маленьком захолустном городке Радиатор-Спрингс, что находится где-то на трассе 66 в Калифорнии.

Участвуя в гонках на Кубок Поршня, где ему противостояли два очень опытных соперника, Маккуин совершенно не ожидал, что отныне ему придется общаться с персонажами совсем иного рода. Это, например, Салли - шикарный Порше 2002-го года выпуска, Док Хадсон - легковушка модели «Хадсон Хорнет», 1951-го года выпуска или Метр - ржавый грузовичок-эвакуатор. И все они помогают Маккуину понять, что в мире существуют некоторые более важные вещи, чем слава, призы и спонсоры...

Качество: BDRip 720p / 60 FPS
Формат: MKV
Видео кодек: H.264
Аудио кодек: AC3
Видео: x264, 1280 x 536 ( 2,40:1 ), 4 388 kbps, 59,940 fps, ( 0.097 bpp)
Аудио#2: Русский, AC-3, 48.0 KHz, 6 ch, 384 Kbps Дубляж



Общее
Уникальный идентификатор : 250595361578178184007603547052864282247 (0xBC86E93C75C0E2E0992993EA63F19E87)
Полное имя : Z:\Тачки.2006.BDRip.720p.mkv
Формат : Matroska
Версия формата : Version 4
Размер файла : 3,57 Гбайт
Продолжительность : 1 ч. 56 м.
Общий поток : 4 388 Кбит/сек
Дата кодирования : UTC 2023-02-16 08:35:59
Программа кодирования : mkvmerge v7.2.0 ('On Every Street') 64bit built on Sep 13 2014 15:52:10
Библиотека кодирования : libebml v1.3.0 + libmatroska v1.4.1

Видео
Идентификатор : 1
Формат : AVC
Формат/Информация : Advanced Video Codec
Профиль формата : [email protected]
Настройки формата : CABAC / 4 Ref Frames
Параметр CABAC формата : Да
Параметр RefFrames формата : 4 кадра
Идентификатор кодека : V_MPEG4/ISO/AVC
Продолжительность : 1 ч. 56 м.
Битрейт : 4 388 Кбит/сек
Ширина : 1 280 пикселей
Высота : 536 пикселей
Соотношение сторон : 2,40:1
Режим частоты кадров : Постоянный
Частота кадров : 59,940 кадров/сек
Цветовое пространство : YUV
Субдискретизация насыщенности : 4:2:0
Битовая глубина : 8 бит
Тип развёртки : Прогрессивная
Бит/(Пиксели*Кадры) : 0.097
Размер потока : 3,26 Гбайт (91%)
Библиотека кодирования : x264 core 146 r2538 121396c
Настройки программы : cabac=1 / ref=3 / deblock=1:0:0 / analyse=0x3:0x113 / me=umh / subme=9 / psy=1 / psy_rd=1.00:0.10 / mixed_ref=1 / me_range=32 / chroma_me=1 / trellis=2 / 8x8dct=1 / cqm=0 / deadzone=21,11 / fast_pskip=0 / chroma_qp_offset=-3 / threads=9 / lookahead_threads=2 / sliced_threads=0 / nr=0 / decimate=1 / interlaced=0 / bluray_compat=0 / constrained_intra=0 / bframes=16 / b_pyramid=2 / b_adapt=2 / b_bias=0 / direct=3 / weightb=1 / open_gop=0 / weightp=2 / keyint=250 / keyint_min=25 / scenecut=40 / intra_refresh=0 / rc_lookahead=40 / rc=2pass / mbtree=0 / bitrate=4000 / ratetol=1.0 / qcomp=0.60 / qpmin=0 / qpmax=69 / qpstep=4 / cplxblur=20.0 / qblur=0.5 / vbv_maxrate=14000 / vbv_bufsize=14000 / nal_hrd=none / filler=0 / ip_ratio=1.40 / pb_ratio=1.30 / aq=1:1.00
Язык : English
Default : Да
Forced : Нет

Аудио
Идентификатор : 2
Формат : AC-3
Формат/Информация : Audio Coding 3
Коммерческое название : Dolby Digital
Идентификатор кодека : A_AC3
Продолжительность : 1 ч. 56 м.
Вид битрейта : Постоянный
Битрейт : 384 Кбит/сек
Каналы : 6 каналов
Channel layout : L R C LFE Ls Rs
Частота : 48,0 КГц
Частота кадров : 31,250 кадров/сек (1536 SPF)
Метод сжатия : С потерями
Размер потока : 320 Мбайт (9%)
Service kind : Complete Main
Default : Да
Forced : Нет





Скачать Тачки через торрент https://st-kp-yandex-net.translate.goog/images/film_iphone/iphone360_61249.jpg Скачать, смотреть онлайн Тачки бесплатно в хорошем качестве Описание: Неукротимый в своем желании всегда и во всем побеждать гоночный автомобиль «Молния» Маккуин вдруг обнаруживает, что сбился с пути ... 10 10 1
Торрент: Зарегистрирован [2023-02-16 09:49] · скачан: 20 раз
Статус: √ проверено
Размер: 3.57 GB
Как cкачать? Как скачать Тачки через торрент | UTorrent

% Раздел Тема Автор DL S | L
Ultra HD (UHD: 2K, 4K, 8K) [ 16.31 GB ] Тачки / Cars | Лицензия | 2160p bober100 Скачать
1 | 0
Ultra HD (UHD: 2K, 4K, 8K) [ 39.68 GB ] Тачки / Cars | Лицензия | 2160p bober100 Скачать
1 | 0
Зарубежные Мультфильмы (BDRip 1080p, 720p, Blu-ray, BD-Remux) [ 9.8 GB ] Тачки 3 / Cars 3 | iTunes | 1080p bober100 Скачать
2 | 0
Иностранные мультфильмы [ 2.04 GB ] Тачки 3 / Cars 3 | Дубляж "BD EUR" | HDRip, Дубляж "BD EUR" coc900 Скачать
1 | 0
Иностранные мультфильмы [ 1.46 GB ] Тачки 3 / Cars 3 | Лицензия | BDRip Twi7ter Скачать
2 | 0
Иностранные мультфильмы [ 1.38 GB ] Тачки 3 / Cars 3 | Лицензия" | HDRip-AVC, Дубляж "Лицензия" Enigma2010 Скачать
1 | 0
Зарубежные Мультфильмы (BDRip 1080p, 720p, Blu-ray, BD-Remux) [ 18.92 GB ] Тачки 3 / Cars 3 | iTunes | BD Remux 1080p bober100 Скачать
1 | 0

28-11-2019 20:33  


Отключить вcю реклaмy на сайте, в т.ч. и в плеере онлайн просмотра!

    Дорогой пользователь! Огромная просьба, поблагодарите релизера, оцените раздачу и оставьте свои комментарий, если Вы скачали Тачки через торрент бесплатно!!
    Комментировать посты могут только пользователи прошедшие не сложную регистрацию
    Показать сообщения:    


    Тачки через торрент
    Скачать бесплатно Тачки
    Тачки скачать торрент
    Тачки смотреть онлайн
    Cкачать фильм Тачки бесплатно
    Тачки скачать торрент в хорошем качестве
    Тачки смотреть онлайн бесплатно в хорошем качестве
    Вы не можете начинать темы
    Вы не можете отвечать на сообщения
    Вы не можете редактировать свои сообщения
    Вы не можете удалять свои сообщения
    Вы не можете голосовать в опросах
    Вы не можете прикреплять файлы к сообщениям
    Вы можете скачивать файлы