Аватар: Путь воды

Дубляж

смотреть онлайн / скачать торрент Гран туризмо

Дубляж

смотреть онлайн / скачать торрент Кентавр

Лицензия

Активация Cyberpunk 2077+Phantom Liberty

Premium

Активация Lies of P

Deluxe

Активация EA Sports FC 24

Игра+DLC

смотреть онлайн / скачать торрент Два, три, демон, приди!

MVO

смотреть онлайн / скачать торрент Форсаж 10

Лицензия

смотреть онлайн / скачать торрент Ведьмак / The Witcher / Сезон: 3

3 сезон

смотреть онлайн / скачать торрент Стражи Галактики. Часть 3

Дубляж

Рекомендуем

Рекомендуем

ВАЖНО

ВАЖНО

30

Лицензия

ARMORED CORE™ VI FIRES OF RUBICON™

Steam-Rip

jed

RePack

PAYDAY 3

Пиратка

RDR2

RePack

Hogwarts Legacy

Steam-Rip

смотреть онлайн / скачать торрент Захваченный

Невафильм

смотреть онлайн / скачать торрент Острые козырьки 6 сезон

6 сезон

FAR CRY 6

RePack

смотреть онлайн / скачать торрент Доктор Стрэндж

Лицензия

скачать торрент Dead Island™ 2

EGS-Rip

скачать торрент The Quarry

Steam-Rip

смотреть онлайн / скачать торрент Мэверик

Лицензия

  

Цитадель / Citadel / Сезон: 1 / Серии: 1-6 из 6 (Ньютон Томас Сигел, Джессика Ю, Энтони Руссо) [2023, Боевик, триллер, драма, WEB-DL 1080p] 3xMVO [NewStudio, LostFilm, TVShows]

Цитадель через торрент pb.wtf

Размер: 11.95 GB | Добавлен: 3 мес. 29 д. назад | Торрент скачан:53 раза
XBOX GAME PASS [PC] +400 игр (13 мес)

2023-05-02 14:45 Цитадель Скачать торрент  

Цитадель | Citadel
«***»
Год выпуска: 2023
Страна: США
Выпущено: AGBO, Amazon Studios, Midnight Radio
Премьера (мир): 28 апреля 2023, «Amazon Prime Video»
Жанр: Боевик, триллер, драма
Продолжительность: ~ 00:41:00 серия
Перевод:
- Профессиональный (многоголосый закадровый) | NewStudio
- Профессиональный (многоголосый закадровый) | LostFilm
- Профессиональный (многоголосый закадровый) | TVShows
Субтитры: Русские (Forced, Full - |Amazon|), украинские, английские (Full, SDH)

Режиссер: Ньютон Томас Сигел, Джессика Ю, Энтони Руссо, Джо Руссо

рейтинг кинопоиск рейтинг imdb

В ролях: Ричард Мэдден (Richard Madden), Приянка Чопра Джонас (Priyanka Chopra Jonas), Эшли Каммингс (Ashleigh Cummings), Роланд Мёллер (Roland Møller), Ози Икхайл (Osy Ikhile), Кэлин Спрингэлл (Caoilinn Springall), Лесли Мэнвилл (Lesley Manville), Стэнли Туччи (Stanley Tucci), Мойра Келли (Moira Kelly), Никки Амука-Бёрд (Nikki Amuka-Bird), Лео Вудалл (Leo Woodall)

Описание: Восемь лет назад «Цитадель» пала. Легендарная международная организация не подчинялась ни одному правительству Земли и была костью в горле для тех, кто наживался развязыванием войн, спонсированием терроризма и дестабилизацией экономик чужих стран. Агенты «Цитадели» неуязвимы и каждый с набором уникальных навыков. Но среди них завелась крыса — предатель слил списки шпионов вражеской организации «Мантикора», и та начала методично уничтожать их. Среди чудом уцелевших шпионов оказался Мэйсон Кейн (Ричард Мэдден), выживший в результате подрыва поезда, но потерявший все воспоминания. Сейчас Кейн живет мирной обыденной жизнью, тренирует младшую лигу по футболу и воспитывает дочь. Только частые флешбэки, в которых он видит ослепительную красотку в поезде, не оставляют его в покое. Размеренное существование Кейна прекращается, когда его находит бывший коллега, технический агент «Цитадели» Бернард Орлик (Стэнли Туччи), и вываливает на ошалевшего мужчину всю правду о его реальной личности. Он убеждает Мэйсона найти и «пробудить» его напарницу, еще одного эффективного полевого агента Надю Синх (Приянка Чопра), чтобы вместе раскрыть предателя и уничтожить «Мантикору» раз и навсегда. Вот только поверит ли ему потерявшая память Надя, смогут ли они распутать готовящийся заговор правительственных элит и поймут ли как он связан с событиями восьмилетней давности? Это если сам Кейн не ошибется с тем, кому из бывших друзей-шпионов можно доверять…

Качество: WEB-DL 1080p
Формат: MKV

Видео: AVC, 1920x800 (2,40:1), 24,000 кадра/сек, ~ 5000 Кбит/сек, 0.135 bit/pixel
Аудио Rus: AC-3, 48 kHz, 6 ch, 448 kbps |NewStudio|
Аудио Rus: AC-3, 48 kHz, 2 ch, 384 kbps |LostFilm|
Аудио Rus: AC-3, 48 kHz, 2 ch, 192 kbps |TVShows|
Аудио Eng: Е-AC-3, 48 kHz, 6 ch, 640 kbps |Original|

Общее
Уникальный идентификатор : 333019745570774506834135427591611199076 (0xFA89451F28AEAE73EC12F76244CDAE64)
Полное имя : D:\Citadel.S01E01.1080p.WEB-DL.RGzsRutracker.mkv
Формат : Matroska
Версия формата : Version 4
Размер файла : 1,94 Гбайт
Продолжительность : 41 м. 55 с.
Общий поток : 6 631 Кбит/сек
Частота кадров : 24,000 кадра/сек
Название фильма : Citadel 01x01 - Release by Wentworth_Miller
Дата кодирования : 2023-05-02 09:34:23 UTC
Программа кодирования : mkvmerge v76.0 ('Celebration') 64-bit
Библиотека кодирования : libebml v1.4.4 + libmatroska v1.7.1

Видео
Идентификатор : 1
Формат : AVC
Формат/Информация : Advanced Video Codec
Профиль формата : High@L4
Настройки формата : CABAC / 4 Ref Frames
Параметр CABAC формата : Да
Параметр RefFrames формата : 4 кадра
Идентификатор кодека : V_MPEG4/ISO/AVC
Продолжительность : 41 м. 55 с.
Вид битрейта : Постоянный
Битрейт : 4 964 Кбит/сек
Номинальный битрейт : 10 000 Кбит/сек
Ширина : 1 920 пикселей
Высота : 800 пикселей
Соотношение сторон : 2,40:1
Режим частоты кадров : Постоянный
Частота кадров : 24,000 кадра/сек
Цветовое пространство : YUV
Субдискретизация насыщенности : 4:2:0
Битовая глубина : 8 бит
Тип развёртки : Прогрессивная
Бит/(Пиксели*Кадры) : 0.135
Размер потока : 1,45 Гбайт (75%)
Заголовок : The Human Enigma
Язык : English
Default : Да
Forced : Нет
Цветовой диапазон : Limited
Основные цвета : BT.709
Характеристики трансфера : BT.709
Коэффициенты матрицы : BT.709

Аудио #1
Идентификатор : 2
Формат : AC-3
Формат/Информация : Audio Coding 3
Коммерческое название : Dolby Digital
Идентификатор кодека : A_AC3
Продолжительность : 41 м. 55 с.
Вид битрейта : Постоянный
Битрейт : 448 Кбит/сек
Каналы : 6 каналов
Channel layout : L R C LFE Ls Rs
Частота : 48,0 КГц
Частота кадров : 31,250 кадров/сек (1536 SPF)
Метод сжатия : С потерями
Размер потока : 134 Мбайт (7%)
Заголовок : NewStudio
Язык : Russian
Service kind : Complete Main
Default : Да
Forced : Нет

Аудио #2
Идентификатор : 3
Формат : AC-3
Формат/Информация : Audio Coding 3
Коммерческое название : Dolby Digital
Идентификатор кодека : A_AC3
Продолжительность : 41 м. 55 с.
Вид битрейта : Постоянный
Битрейт : 384 Кбит/сек
Каналы : 2 канала
Channel layout : L R
Частота : 48,0 КГц
Частота кадров : 31,250 кадров/сек (1536 SPF)
Метод сжатия : С потерями
Размер потока : 115 Мбайт (6%)
Заголовок : LostFilm
Язык : Russian
Service kind : Complete Main
Default : Нет
Forced : Нет

Аудио #3
Идентификатор : 4
Формат : AC-3
Формат/Информация : Audio Coding 3
Коммерческое название : Dolby Digital
Идентификатор кодека : A_AC3
Продолжительность : 41 м. 55 с.
Вид битрейта : Постоянный
Битрейт : 192 Кбит/сек
Каналы : 2 канала
Channel layout : L R
Частота : 48,0 КГц
Частота кадров : 31,250 кадров/сек (1536 SPF)
Метод сжатия : С потерями
Размер потока : 57,6 Мбайт (3%)
Заголовок : TVShows
Язык : Russian
Service kind : Complete Main
Default : Нет
Forced : Нет

Аудио #4
Идентификатор : 5
Формат : E-AC-3
Формат/Информация : Enhanced AC-3
Коммерческое название : Dolby Digital Plus
Идентификатор кодека : A_EAC3
Продолжительность : 41 м. 55 с.
Вид битрейта : Постоянный
Битрейт : 640 Кбит/сек
Каналы : 6 каналов
Channel layout : L R C LFE Ls Rs
Частота : 48,0 КГц
Частота кадров : 31,250 кадров/сек (1536 SPF)
Метод сжатия : С потерями
Размер потока : 192 Мбайт (10%)
Язык : English (US)
Service kind : Complete Main
Default : Нет
Forced : Нет

Текст #1
Идентификатор : 6
Формат : UTF-8
Идентификатор кодека : S_TEXT/UTF8
Идентификатор кодека/Информация : UTF-8 Plain Text
Продолжительность : 36 м. 41 с.
Битрейт : 2 бит/сек
Частота кадров : 0,008 кадр/сек
Count of elements : 17
Размер потока : 606 байт (0%)
Заголовок : Forced
Язык : Russian
Default : Нет
Forced : Да

Текст #2
Идентификатор : 7
Формат : UTF-8
Идентификатор кодека : S_TEXT/UTF8
Идентификатор кодека/Информация : UTF-8 Plain Text
Продолжительность : 38 м. 32 с.
Битрейт : 90 бит/сек
Частота кадров : 0,213 кадр/сек
Count of elements : 492
Размер потока : 25,4 Кбайт (0%)
Язык : Russian (RU)
Default : Нет
Forced : Нет

Текст #3
Идентификатор : 8
Формат : UTF-8
Идентификатор кодека : S_TEXT/UTF8
Идентификатор кодека/Информация : UTF-8 Plain Text
Продолжительность : 38 м. 32 с.
Битрейт : 86 бит/сек
Частота кадров : 0,213 кадр/сек
Count of elements : 492
Размер потока : 24,5 Кбайт (0%)
Язык : Ukrainian (UA)
Default : Нет
Forced : Нет

Текст #4
Идентификатор : 9
Формат : UTF-8
Идентификатор кодека : S_TEXT/UTF8
Идентификатор кодека/Информация : UTF-8 Plain Text
Продолжительность : 7 м. 41 с.
Битрейт : 3 бит/сек
Частота кадров : 0,017 кадр/сек
Count of elements : 8
Размер потока : 212 байт (0%)
Заголовок : Forced
Язык : English (US)
Default : Нет
Forced : Нет

Текст #5
Идентификатор : 10
Формат : UTF-8
Идентификатор кодека : S_TEXT/UTF8
Идентификатор кодека/Информация : UTF-8 Plain Text
Продолжительность : 7 м. 41 с.
Битрейт : 4 бит/сек
Частота кадров : 0,017 кадр/сек
Count of elements : 8
Размер потока : 265 байт (0%)
Заголовок : SDH (Forced)
Язык : English (US)
Default : Нет
Forced : Нет

Текст #6
Идентификатор : 11
Формат : UTF-8
Идентификатор кодека : S_TEXT/UTF8
Идентификатор кодека/Информация : UTF-8 Plain Text
Продолжительность : 37 м. 44 с.
Битрейт : 64 бит/сек
Частота кадров : 0,252 кадр/сек
Count of elements : 570
Размер потока : 17,8 Кбайт (0%)
Язык : English (US)
Default : Нет
Forced : Нет

Текст #7
Идентификатор : 12
Формат : UTF-8
Идентификатор кодека : S_TEXT/UTF8
Идентификатор кодека/Информация : UTF-8 Plain Text
Продолжительность : 38 м. 49 с.
Битрейт : 69 бит/сек
Частота кадров : 0,277 кадр/сек
Count of elements : 645
Размер потока : 19,9 Кбайт (0%)
Заголовок : SDH
Язык : English (US)
Default : Нет
Forced : Нет

Меню
00:00:00.000 : en:Prime Video
00:00:05.000 : en:Scene 2
00:00:47.000 : en:Scene 3
00:01:10.000 : en:Scene 4
00:01:27.000 : en:Scene 5
00:02:12.000 : en:Scene 6
00:04:00.000 : en:Scene 7
00:04:44.000 : en:Scene 8
00:05:07.000 : en:Scene 9
00:06:12.000 : en:Scene 10
00:07:24.000 : en:Scene 11
00:08:04.000 : en:Scene 12
00:08:46.000 : en:Scene 13
00:08:50.000 : en:Scene 14
00:11:45.000 : en:Scene 15
00:11:55.000 : en:Scene 16
00:12:03.000 : en:Scene 17
00:12:17.000 : en:Opening Credits
00:13:11.000 : en:Title Sequence
00:13:34.000 : en:Scene 20
00:14:09.000 : en:Scene 21
00:15:33.000 : en:Scene 22
00:15:53.000 : en:Scene 23
00:16:43.000 : en:Scene 24
00:17:06.000 : en:Scene 25
00:19:02.000 : en:Scene 26
00:20:45.000 : en:Scene 27
00:21:59.000 : en:Scene 28
00:24:02.000 : en:Scene 29
00:24:53.000 : en:Scene 30
00:25:59.000 : en:Scene 31
00:26:54.000 : en:Scene 32
00:27:45.000 : en:Scene 33
00:28:17.000 : en:Scene 34
00:30:26.000 : en:Scene 35
00:30:48.000 : en:Scene 36
00:32:04.000 : en:Scene 37
00:35:12.000 : en:Scene 38
00:35:14.000 : en:Scene 39
00:36:24.000 : en:Scene 40
00:37:10.000 : en:Scene 41
00:37:16.000 : en:End Credits

Внимание! Раздача ведётся путём добавления новых серий; при каждом добавлении создаётся новый торрент.
Чтобы начать докачку новой серии, пользователям необходимо сделать следующее:
1. Остановить скачивание;
2. Удалить старый торрент у себя из клиента (старые серии удалять не надо);
3. Скачать новый торрент и запустить его у себя в клиенте вместо старого, при этом указать клиенту путь в старую папку куда и должно происходить скачивание новых серий. Ваш клиент при этом должен произвести хеширование (проверку) старой папки и будет докачивать только те серии, которых у вас ещё нет. Старые серии при этом не удаляются, а продолжают раздаваться! Eсли вы уже удалили старые серии, то предотвратить повторную закачку старых серий можно, отжав галочку в соответствующих местах при запуске нового торрента.



Что делать, если пишет видео недоступно?
Смотрeть онлайн фильм Цитадель в хорошем HD 1080 качестве



Описание: Восемь лет назад «Цитадель» пала. Легендарная международная организация не подчинялась ни одному правительству Земли и была ... https://i4.imageban.ru/out/2023/05/02/16a4974d03c7eae5b4410ed371208633.png https://i4.imageban.ru/out/2023/05/02/16a4974d03c7eae5b4410ed371208633.png 2023-05-02 14:45 Cмотреть онлайн Цитадель true ru Скачать Цитадель через торрент, смотреть онлайн Цитадель https://i4.imageban.ru/out/2023/05/02/16a4974d03c7eae5b4410ed371208633.png Скачать, смотреть онлайн Цитадель бесплатно в хорошем качестве Описание: Восемь лет назад «Цитадель» пала. Легендарная международная организация не подчинялась ни одному правительству Земли и была ... 10 10 7
Торрент: Зарегистрирован [2023-05-30 06:12] · скачан: 53 раз
Статус: √ проверено
Размер: 11.95 GB
Как cкачать? Как скачать Цитадель через торрент | UTorrent | Поделиться в телеграм

% Раздел Тема Автор DL S | L
Зарубежные сериалы [ 3.52 GB ] Цитадель / Citadel / Сезон: 1 / Серии: 1-6 из 6 | LostFilm | DLRip bober100 Скачать
3 | 0
Зарубежные сериалы [ 10.82 GB ] Цитадель / Citadel / Сезон: 1 / Серии: 1-6 из 6 | LostFilm | 1080p bober100 Скачать
1 | 0
Зарубежные сериалы [ 6.52 GB ] Цитадель / Citadel / Сезон: 1 / Серии: 1-6 из 6 | TVShows | 720p bober100 Скачать
2 | 0
Зарубежные сериалы [ 12.84 GB ] Цитадель / Citadel / Сезон: 1 / Серии 1-6 из 6 | NewComers | 1080p GEKADOL Скачать
2 | 0



Последний раз редактировалось: bober100 (2023-05-09 05:28), всего редактировалось 2 раз(а)

28-11-2019 20:33  


Отключить вcю реклaмy на сайте, в т.ч. и в плеере онлайн просмотра!

    Дорогой пользователь! Огромная просьба, поблагодарите релизера, оцените раздачу и оставьте свои комментарий, если Вы скачали Цитадель через торрент бесплатно!!
    Комментировать посты могут только пользователи прошедшие не сложную регистрацию
    Показать сообщения:    


    смотреть онлайн Цитадель
    Цитадель через торрент
    Скачать бесплатно Цитадель
    Цитадель скачать торрент
    Цитадель смотреть онлайн
    Cкачать фильм Цитадель бесплатно
    Цитадель скачать торрент в хорошем качестве
    Цитадель смотреть онлайн бесплатно в хорошем качестве
    Вы не можете начинать темы
    Вы не можете отвечать на сообщения
    Вы не можете редактировать свои сообщения
    Вы не можете удалять свои сообщения
    Вы не можете голосовать в опросах
    Вы не можете прикреплять файлы к сообщениям
    Вы можете скачивать файлы