Аватар: Путь воды

Лицензия

Сансара

1 сезон

скачать смотреть онлайн John Wick Chapter 4

MVO

Крик 6

Дубляж

13 клиническая

3 сезон

Восстание зловещих мертвецов

Дубляж

Одни из нас

Дубляж

Dead Island 2 Gold

Gold

Deluxe

Deluxe

pack

Рекомендуем

ВАЖНО

ВАЖНО

30

Repack

The Lord of the Rings: Gollum

Лицензия

jed

RePack

nioh2

RePack

RDR2

RePack

NEED FOR SPEED™ PAYBACK

RePack

скачать торрент

Кинопоиск HD

Острые козырьки 6 сезон

6 сезон

FAR CRY 6

RePack

скачать торрент

Лицензия

скачать торрент

MVO

1

1 сезон

скачать торрент

1 сезон

скачать торрент

Лицензия

  

Подземелья и драконы: Честь среди воров / Dungeons & Dragons: Honor Among Thieves (Джон Фрэнсис Дейли, Джонатан М. Голдштейн) [2023, Фэнтези, боевик, комедия, BDRip 1080p] 4xMVO+AVO [Ю.Сербин]

Подземелья и драконы: Честь среди воров через торрент pb.wtf

Раздают: 19 [ 3 MB/s ]
Размер: 12.97 GB | Добавлен: 4 д. назад | Торрент скачан:219 раз
Смотреть онлайн | Скачать | Поддержите нас   

02-05-2023 17:18 Подземелья и драконы: Честь среди воров Скачать торрент  

Подземелья и драконы: Честь среди воров
Dungeons & Dragons: Honor Among Thieves

Год выпуска: 2023
Страна: США, Канада, Великобритания, Исландия, Ирландия, Австралия
Выпущено: Allspark Pictures, Aurum Producciones S.A., Hasbro Inc., Hasbro Studios, Paramount Pictures
Жанр: Фэнтези, боевик, комедия
Продолжительность: 02:14:08
Перевод:
* Профессиональный (многоголосый, закадровый) | Jaskier
* Профессиональный (многоголосый, закадровый) | TVShows
* Профессиональный (многоголосый, закадровый) | NewComers
* Профессиональный (многоголосый, закадровый) | LostFilm
* Авторский (одноголосый, закадровый) | Юрий Сербин
Субтитры: Русские (полные (Director's Card и RebelProject)), английские

Режиссер: Джон Фрэнсис Дейли, Джонатан М. Голдштейн

rating

В ролях: Крис Пайн, Мишель Родригес, Джастис Смит, София Лиллис, Хью Грант, Хлоя Коулмэн, Дэйзи Хэд, Реге-Жан Пейдж, Кайл Хиксон, Спенсер Уайлдинг

Описание: Бард и авантюрист Эдгин Дарвис вместе с боевой подругой Хольгой сбегает из тюрьмы и отправляется повидать дочку, которую последние годы опекал его бывший подельник Фордж. По прибытии выясняется, что тот при поддержке подозрительной колдуньи Софины не только сказочно разбогател и сделался губернатором, но и настроил дочь против отца, да и вообще — не против избавиться от Эдгина и Хольги. Умудрившись отбиться от палачей, отчаянная парочка планирует страшную месть, а для этого им придётся объединиться с рассеянным магом Саймоном, ловкой друидкой Дорик и отыскать считавшийся утерянным волшебный шлем.

Качество: BDRip 1080p
Формат: MKV

Видео: 1920x804 (2.40:1), 23.976 fps, MPEG-4 AVC ~ 10.9 Mbps avg, 0.294 bit/pixel
Аудио: AC3, 48 kHz, 6 ch, ~640.00 kbps avg | русский | MVO | Jaskier
Аудио: AC3, 48 kHz, 6 ch, ~384.00 kbps avg | русский | MVO | TVShows
Аудио: AC3, 48 kHz, 6 ch, ~640.00 kbps avg | русский | MVO | NewComers
Аудио: AC3, 48 kHz, 2 ch, ~192.00 kbps avg | русский | MVO | LostFilm
Аудио: AC3, 48 kHz, 6 ch, ~448.00 kbps avg | русский | AVO | Ю. Сербин
Аудио: AC3, 48 kHz, 6 ch, ~640.00 kbps avg | английский |
скриншот  скриншот  скриншот  скриншот  скриншот  скриншот  

Общее
Уникальный идентификатор : 213349564070393871136461645454958442856 (0xA081A1A3DB75D3A69193AA3C6378B968)
Полное имя : Dungeons.and.Dragons.Honor.Among.Thieves.2023.1080p.BluRay.DD.5.1.x264-MegaPeer.mkv
Формат : Matroska
Версия формата : Version 4
Размер файла : 13, 0 Гбайт
Продолжительность : 2 ч. 14 м.
Общий поток : 13, 8 Мбит/сек
Название фильма : Подземелья и драконы: Честь среди воров / Dungeons & Dragons: Honor Among Thieves (2023) от MegaPeer
Дата кодирования : UTC 2023-05-22 21:48:21
Программа кодирования : mkvmerge v15.0.0 ('Duel with the Devil') 64-bit
Библиотека кодирования : libebml v1.3.5 + libmatroska v1.4.5
Обложка : Yes
Attachments : cover.jpg

Видео
Идентификатор : 1
Формат : AVC
Формат/Информация : Advanced Video Codec
Профиль формата : [email protected]
Настройки формата : CABAC / 5 Ref Frames
Параметр CABAC формата : Да
Параметр RefFrames формата : 5 кадров
Идентификатор кодека : V_MPEG4/ISO/AVC
Продолжительность : 2 ч. 14 м.
Битрейт : 10, 9 Мбит/сек
Ширина : 1 920 пикселей
Высота : 804 пикселя
Соотношение сторон : 2, 40:1
Режим частоты кадров : Постоянный
Частота кадров : 23, 976 (24000/1001) кадра/сек
Цветовое пространство : YUV
Субдискретизация насыщенности : 4:2:0
Битовая глубина : 8 бит
Тип развёртки : Прогрессивная
Бит/(Пиксели*Кадры) : 0.294
Размер потока : 10, 2 Гбайт (79%)
Заголовок : MTeam
Библиотека кодирования : x264 core 157 r2938 2b00a84 [email protected] Mod
Настройки программы : cabac=1 / ref=5 / deblock=1:-3:-3 / analyse=0x3:0x133 / me=umh / subme=10 / psy=1 / psy_rd=1.05:0.00 / mixed_ref=1 / me_range=32 / chroma_me=1 / trellis=2 / 8x8dct=1 / cqm=0 / deadzone=21, 11 / fast_pskip=0 / chroma_qp_offset=-2 / threads=12 / lookahead_threads=2 / sliced_threads=0 / nr=0 / decimate=0 / interlaced=0 / bluray_compat=0 / constrained_intra=0 / bframes=8 / b_pyramid=2 / b_adapt=2 / b_bias=0 / direct=3 / weightb=1 / open_gop=0 / weightp=2 / keyint=250 / keyint_min=24 / scenecut=40 / intra_refresh=0 / rc_lookahead=250 / rc=crf / mbtree=0 / crf=16.8 / qcomp=0.60 / qpmin=0 / qpmax=69 / qpstep=4 / vbv_maxrate=62500 / vbv_bufsize=78125 / crf_max=0.0 / nal_hrd=none / filler=0 / ip_ratio=1.30 / pb_ratio=1.20 / aq=3:0.80
Язык : English
Default : Да
Forced : Нет
Цветовой диапазон : Limited
Основные цвета : BT.709
Коэффициенты матрицы : BT.709

Аудио #1
Идентификатор : 2
Формат : AC-3
Формат/Информация : Audio Coding 3
Коммерческое название : Dolby Digital
Идентификатор кодека : A_AC3
Продолжительность : 2 ч. 14 м.
Вид битрейта : Постоянный
Битрейт : 640 Кбит/сек
Каналы : 6 каналов
Channel layout : L R C LFE Ls Rs
Частота : 48, 0 КГц
Частота кадров : 31, 250 кадров/сек (1536 SPF)
Метод сжатия : С потерями
Размер потока : 614 Мбайт (5%)
Заголовок : MVO | Jaskier
Язык : Russian
Service kind : Complete Main
Default : Да
Forced : Да

Аудио #2
Идентификатор : 3
Формат : AC-3
Формат/Информация : Audio Coding 3
Коммерческое название : Dolby Digital
Идентификатор кодека : A_AC3
Продолжительность : 2 ч. 14 м.
Вид битрейта : Постоянный
Битрейт : 384 Кбит/сек
Каналы : 6 каналов
Channel layout : L R C LFE Ls Rs
Частота : 48, 0 КГц
Частота кадров : 31, 250 кадров/сек (1536 SPF)
Метод сжатия : С потерями
Размер потока : 368 Мбайт (3%)
Заголовок : MVO | TVShow
Язык : Russian
Service kind : Complete Main
Default : Нет
Forced : Нет

Аудио #3
Идентификатор : 4
Формат : AC-3
Формат/Информация : Audio Coding 3
Коммерческое название : Dolby Digital
Идентификатор кодека : A_AC3
Продолжительность : 2 ч. 14 м.
Вид битрейта : Постоянный
Битрейт : 640 Кбит/сек
Каналы : 6 каналов
Channel layout : L R C LFE Ls Rs
Частота : 48, 0 КГц
Частота кадров : 31, 250 кадров/сек (1536 SPF)
Метод сжатия : С потерями
Размер потока : 614 Мбайт (5%)
Заголовок : MVO | NewComers
Язык : Russian
Service kind : Complete Main
Default : Нет
Forced : Нет

Аудио #4
Идентификатор : 5
Формат : AC-3
Формат/Информация : Audio Coding 3
Коммерческое название : Dolby Digital
Идентификатор кодека : A_AC3
Продолжительность : 2 ч. 14 м.
Вид битрейта : Постоянный
Битрейт : 192 Кбит/сек
Каналы : 2 канала
Channel layout : L R
Частота : 48, 0 КГц
Частота кадров : 31, 250 кадров/сек (1536 SPF)
Метод сжатия : С потерями
Размер потока : 184 Мбайт (1%)
Заголовок : MVO | LostFilm
Язык : Russian
Service kind : Complete Main
Default : Нет
Forced : Нет

Аудио #5
Идентификатор : 6
Формат : AC-3
Формат/Информация : Audio Coding 3
Коммерческое название : Dolby Digital
Идентификатор кодека : A_AC3
Продолжительность : 2 ч. 14 м.
Вид битрейта : Постоянный
Битрейт : 448 Кбит/сек
Каналы : 6 каналов
Channel layout : L R C LFE Ls Rs
Частота : 48, 0 КГц
Частота кадров : 31, 250 кадров/сек (1536 SPF)
Метод сжатия : С потерями
Размер потока : 430 Мбайт (3%)
Заголовок : AVO | Ю. Сербин
Язык : Russian
Service kind : Complete Main
Default : Нет
Forced : Нет

Аудио #6
Идентификатор : 7
Формат : AC-3
Формат/Информация : Audio Coding 3
Коммерческое название : Dolby Digital
Идентификатор кодека : A_AC3
Продолжительность : 2 ч. 14 м.
Вид битрейта : Постоянный
Битрейт : 640 Кбит/сек
Каналы : 6 каналов
Channel layout : L R C LFE Ls Rs
Частота : 48, 0 КГц
Частота кадров : 31, 250 кадров/сек (1536 SPF)
Метод сжатия : С потерями
Размер потока : 614 Мбайт (5%)
Язык : English
Service kind : Complete Main
Default : Нет
Forced : Нет

Текст #1
Идентификатор : 8
Формат : UTF-8
Идентификатор кодека : S_TEXT/UTF8
Идентификатор кодека/Информация : UTF-8 Plain Text
Продолжительность : 2 ч. 6 м.
Битрейт : 94 бит/сек
Count of elements : 1641
Размер потока : 87, 8 Кбайт (0%)
Заголовок : Full
Язык : Russian
Default : Нет
Forced : Нет

Текст #2
Идентификатор : 9
Формат : UTF-8
Идентификатор кодека : S_TEXT/UTF8
Идентификатор кодека/Информация : UTF-8 Plain Text
Продолжительность : 35 м. 25 с.
Битрейт : 1 бит/сек
Count of elements : 13
Размер потока : 484 байт (0%)
Заголовок : Forced
Язык : English
Default : Нет
Forced : Нет

Текст #3
Идентификатор : 10
Формат : UTF-8
Идентификатор кодека : S_TEXT/UTF8
Идентификатор кодека/Информация : UTF-8 Plain Text
Продолжительность : 2 ч. 6 м.
Битрейт : 60 бит/сек
Count of elements : 1653
Размер потока : 56, 4 Кбайт (0%)
Заголовок : Full
Язык : English
Default : Нет
Forced : Нет

Текст #4
Идентификатор : 11
Формат : UTF-8
Идентификатор кодека : S_TEXT/UTF8
Идентификатор кодека/Информация : UTF-8 Plain Text
Продолжительность : 2 ч. 7 м.
Битрейт : 66 бит/сек
Count of elements : 1931
Размер потока : 62, 6 Кбайт (0%)
Заголовок : SDH
Язык : English
Default : Да
Forced : Нет

Меню
00:00:00.000 : en:Chapter 01
00:07:55.475 : en:Chapter 02
00:14:48.387 : en:Chapter 03
00:26:48.565 : en:Chapter 04
00:33:54.366 : en:Chapter 05
00:42:14.365 : en:Chapter 06
00:49:19.665 : en:Chapter 07
00:57:33.408 : en:Chapter 08
01:05:10.198 : en:Chapter 09
01:17:03.244 : en:Chapter 10
01:26:41.071 : en:Chapter 11
01:32:11.109 : en:Chapter 12
01:40:15.676 : en:Chapter 13
01:47:44.541 : en:Chapter 14
01:53:30.137 : en:Chapter 15
02:05:37.071 : en:Chapter 16





Скачать Подземелья и драконы: Честь среди воров через торрент https://i121.fastpic.org/big/2023/0516/ad/cbfc3afbc701ce010543374db7aa2aad.jpg Скачать, смотреть онлайн Подземелья и драконы: Честь среди воров бесплатно в хорошем качестве Описание: Бард и авантюрист Эдгин Дарвис вместе с боевой подругой Хольгой сбегает из тюрьмы и отправляется повидать дочку, которую ... 9.7 10 29
Торрент: Зарегистрирован [2023-05-23 03:38] · скачан: 219 раз
Статус: √ проверено
Размер: 12.97 GB
Как cкачать? Как скачать Подземелья и драконы: Честь среди воров через торрент | UTorrent

% Раздел Тема Автор DL S | L
Фильмы 2022-2023 [DVDrip, WEB-DLRip, HDrip] (DUB, MVO) [ 2.16 GB ] Подземелья и драконы: Честь среди воров / Dungeons & Dragons: Honor Among Thieves | Jaskier | DLRip bober100 Скачать
20 | 0



Последний раз редактировалось: bober100 (2023-05-23 03:44), всего редактировалось 2 раз(а)

28-11-2019 20:33  


Отключить вcю реклaмy на сайте, в т.ч. и в плеере онлайн просмотра!

02-05-2023 21:26 Подземелья и драконы: Честь среди воров Скачать торрент  

такое описание унылое и такие рейтинги. подумал пройти мимо, пока не глянул трейлер. весьма бодро


апд. не досмотрел. не зашел чето






Последний раз редактировалось: tamburetko (2023-05-04 11:19), всего редактировалось 1 раз

03-05-2023 13:52 Подземелья и драконы: Честь среди воров Скачать торрент  

3 скрин конечно ухх



03-05-2023 16:34 Подземелья и драконы: Честь среди воров Скачать торрент  

Это типо по игре? Вроде есть такое название.



04-05-2023 07:06 Подземелья и драконы: Честь среди воров Скачать торрент  

Andrew70 писал(а):

Это типо по игре? Вроде есть такое название.

по настольной игре.



04-05-2023 16:30 Подземелья и драконы: Честь среди воров Скачать торрент  

просто бальзам на сердце.спасибо за красивую сказку.актеры,эффекты-все на высоте.жаль что редко выходят путевые фильмы.



05-05-2023 16:05 Подземелья и драконы: Честь среди воров Скачать торрент  

Я думал шляпа какая то а потом просто с удовольствие смотрел и местами ржал как конь невоспитанный вот это да неужели кто то снимает такие хорошие фильмы



08-05-2023 13:21 Подземелья и драконы: Честь среди воров Скачать торрент  

Первая половина фильма унылое говно и выглядит как очень дешевый сериал. Вторая половина уже намного интереснее из-за внезапно возросшего качества и спецефектов. Но речь не о спецефектах, мне на них по барабану.
Диалоги как будто писали сценаристы марвела: очень убого.
Рейтинг сильно завышен. Я не знаю кому там кто платит в современных рейтингах, но он явно фейковый.
смотрел в переводе многоголосом (двухголосом в реальности), это вообще ебала.
Рекомендую ждать нормальной озвучки.
Фильм конечно смотреть можно, но нужно набратся терпения)



23-05-2023 15:35 Подземелья и драконы: Честь среди воров Скачать торрент  

Неплохо. Был бы сериалом - вообще был бы огонь.



    Дорогой пользователь! Огромная просьба, поблагодарите релизера, оцените раздачу и оставьте свои комментарий, если Вы скачали Подземелья и драконы: Честь среди воров через торрент бесплатно!!
    Комментировать посты могут только пользователи прошедшие не сложную регистрацию
    Показать сообщения:    


    Подземелья и драконы: Честь среди воров через торрент
    Скачать бесплатно Подземелья и драконы: Честь среди воров
    Подземелья и драконы: Честь среди воров скачать торрент
    Подземелья и драконы: Честь среди воров смотреть онлайн
    Cкачать фильм Подземелья и драконы: Честь среди воров бесплатно
    Подземелья и драконы: Честь среди воров скачать торрент в хорошем качестве
    Подземелья и драконы: Честь среди воров смотреть онлайн бесплатно в хорошем качестве
    Вы не можете начинать темы
    Вы не можете отвечать на сообщения
    Вы не можете редактировать свои сообщения
    Вы не можете удалять свои сообщения
    Вы не можете голосовать в опросах
    Вы не можете прикреплять файлы к сообщениям
    Вы можете скачивать файлы