Аватар: Путь воды

Дубляж

смотреть онлайн / скачать торрент Гран туризмо

Дубляж

смотреть онлайн / скачать торрент Кентавр

Лицензия

Активация Mortal Kombat 1

Premium

Активация Lies of P

Deluxe

Активация Resident evil 4 remake+DLC Separate Ways

Игра+DLC

смотреть онлайн / скачать торрент Два, три, демон, приди!

MVO

смотреть онлайн / скачать торрент Форсаж 10

Лицензия

смотреть онлайн / скачать торрент Ведьмак / The Witcher / Сезон: 3

3 сезон

смотреть онлайн / скачать торрент Стражи Галактики. Часть 3

Дубляж

Рекомендуем

Рекомендуем

ВАЖНО

ВАЖНО

30

Лицензия

ARMORED CORE™ VI FIRES OF RUBICON™

Steam-Rip

jed

RePack

PAYDAY 3

Пиратка

RDR2

RePack

Hogwarts Legacy

Steam-Rip

смотреть онлайн / скачать торрент Захваченный

Невафильм

смотреть онлайн / скачать торрент Острые козырьки 6 сезон

6 сезон

FAR CRY 6

RePack

смотреть онлайн / скачать торрент Доктор Стрэндж

Лицензия

скачать торрент Dead Island™ 2

EGS-Rip

скачать торрент The Quarry

Steam-Rip

смотреть онлайн / скачать торрент Мэверик

Лицензия

  

Крик 6 / Scream VI (Мэттью Беттинелли, Тайлер Джиллетт) [2023, Ужасы, триллер, детектив, WEB-DL-HEVC 2160p, (Dolby Vision Profile 8)] Дубляж (rus, ukr) [Лицензия] +MVO [TVShows] +AVO [М.Яроцкий]

Крик 6 через торрент pb.wtf

Раздают: 5 [ 0.3 KB/s ]
Размер: 15.09 GB | Добавлен: 4 мес. 17 д. назад | Торрент скачан:213 раз
XBOX GAME PASS [PC] +400 игр (13 мес)

2023-05-11 03:54 Крик 6 Скачать торрент  

Крик 6
Scream VI

Год выпуска: 2023
Страна: США, Канада
Выпущено: Paramount Pictures, Project X Entertainment, Québec Production Services Tax Credit, Radio Silence Productions, Spyglass Media Group
Жанр: Ужасы, триллер, детектив
Продолжительность: 02:05:10
Перевод:
Дублированный | Лицензия
Профессиональный (многоголосый, закадровый) | TVShows
Авторский (одноголосый, закадровый) | М.Яроцкий 18 +
Субтитры: Русские (Forced, 2 x full), украинские (Forced, full), английские

Режиссер: Мэттью Беттинелли, Тайлер Джиллетт

рейтинг кинопоиск рейтинг imdb

В ролях: Мелисса Баррера, Дженна Ортега, Мэйсон Гудинг, Джасмин Савой Браун, Кортни Кокс, Скит Ульрих, Роджер Л. Джексон, Дермот Малруни, Джек Чемпион, Джош Сегарра

Описание: Четверо выживших после резни в Вудсборо — сёстры Карпентер и близнецы Чад и Минди — переехали в Нью-Йорк, где пытаются начать жизнь заново. Сэм посещает психотерапевта и к неудовольствию Тары трясётся над каждым её шагом, но, как вскоре выясняется, не зря. Маньяк в маске Призрачного лица снова начинает убивать, и, как предполагает Минди, из числа подозреваемых не стоит исключать ни новых знакомых, ни старых друзей.

Качество: WEB-DL-HEVC 2160p | Dolby Vision Profile 8
Формат: MKV

Видео: MPEG-H HEVC HDR ,HDR10+, 14.3 Mбит/с, 3840x1600, 23.976 кадр/с
Аудио 1: AC3, 6 ch, ~384 kbps - | Русский | | Дубляж
Аудио 2: AC3, 6 ch, ~384 kbps - | Русский | | TVShows
Аудио 3: E-AC3+Atmos, 6 ch, ~768 kbps - | Русский | | TVShows
Аудио 4: AC3, 6 ch, ~640 kbps - | Русский | | М.Яроцкий
Аудио 5: AC3, 6 ch, ~384 kbps - | Украинский | | Дубляж
Аудио 6: E-AC3+Atmos, 6 ch, ~768 kbps - | Английский | | Original
скриншот  скриншот  скриншот  скриншот  скриншот  

General
Unique ID : 31413255937899279481257216604430864554 (0x17A1F9183DE48F54C3859F27FFB310AA)
Complete name : E:VideoEScream.VI.2023.D.MVO.AVO.WEB-DL.2160p.HDR.DVP8.seleZen.mkv
Format : Matroska
Format version : Version 4
File size : 15.1 GiB
Duration : 2 h 2 min
Overall bit rate : 17.6 Mb/s
Frame rate : 23.976 FPS
Movie name : Scream.VI.2023.seleZen
Encoded date : 2023-05-10 19:02:31 UTC
Writing application : mkvmerge v59.0.0 ('Shining Star') 64-bit
Writing library : libebml v1.4.2 + libmatroska v1.6.4
Cover : Yes
Attachments : cover.jpg / small_cover.jpg

Video
ID : 1
Format : HEVC
Format/Info : High Efficiency Video Coding
Format profile : Main 10@L5@Main
HDR format : Dolby Vision, Version 1.0, dvhe.08.06, BL+RPU, HDR10 compatible / SMPTE ST 2094 App 4, Version 1, HDR10+ Profile B compatible
Codec ID : V_MPEGH/ISO/HEVC
Duration : 2 h 2 min
Bit rate : 14.3 Mb/s
Width : 3 840 pixels
Height : 2 160 pixels
Display aspect ratio : 16:9
Frame rate mode : Constant
Frame rate : 23.976 (24000/1001) FPS
Color space : YUV
Chroma subsampling : 4:2:0 (Type 2)
Bit depth : 10 bits
Bits/(Pixel*Frame) : 0.072
Stream size : 12.2 GiB (81%)
Language : English
Default : Yes
Forced : No
Color range : Limited
Color primaries : BT.2020
Transfer characteristics : PQ
Matrix coefficients : BT.2020 non-constant
Mastering display color pri : Display P3
Mastering display luminance : min: 0.0001 cd/m2, max: 1000 cd/m2

Audio #1
ID : 2
Format : AC-3
Format/Info : Audio Coding 3
Commercial name : Dolby Digital
Codec ID : A_AC3
Duration : 2 h 2 min
Bit rate mode : Constant
Bit rate : 384 kb/s
Channel(s) : 6 channels
Channel layout : L R C LFE Ls Rs
Sampling rate : 48.0 kHz
Frame rate : 31.250 FPS (1536 SPF)
Compression mode : Lossy
Stream size : 337 MiB (2%)
Title : Дубляж
Language : Russian
Service kind : Complete Main
Default : Yes
Forced : Yes

Audio #2
ID : 3
Format : AC-3
Format/Info : Audio Coding 3
Commercial name : Dolby Digital
Codec ID : A_AC3
Duration : 2 h 2 min
Bit rate mode : Constant
Bit rate : 384 kb/s
Channel(s) : 6 channels
Channel layout : L R C LFE Ls Rs
Sampling rate : 48.0 kHz
Frame rate : 31.250 FPS (1536 SPF)
Compression mode : Lossy
Stream size : 337 MiB (2%)
Title : MVO_[TVShows]
Language : Russian
Service kind : Complete Main
Default : No
Forced : No

Audio #3
ID : 4
Format : E-AC-3 JOC
Format/Info : Enhanced AC-3 with Joint Object Coding
Commercial name : Dolby Digital Plus with Dolby Atmos
Codec ID : A_EAC3
Duration : 2 h 2 min
Bit rate mode : Constant
Bit rate : 768 kb/s
Channel(s) : 6 channels
Channel layout : L R C LFE Ls Rs
Sampling rate : 48.0 kHz
Frame rate : 31.250 FPS (1536 SPF)
Compression mode : Lossy
Stream size : 673 MiB (4%)
Title : MVO_[TVShows]
Language : Russian
Service kind : Complete Main
Default : No
Forced : No
Complexity index : 16
Number of dynamic objects : 15
Bed channel count : 1 channel
Bed channel configuration : LFE

Audio #4
ID : 5
Format : AC-3
Format/Info : Audio Coding 3
Commercial name : Dolby Digital
Codec ID : A_AC3
Duration : 2 h 2 min
Bit rate mode : Constant
Bit rate : 640 kb/s
Channel(s) : 6 channels
Channel layout : L R C LFE Ls Rs
Sampling rate : 48.0 kHz
Frame rate : 31.250 FPS (1536 SPF)
Compression mode : Lossy
Stream size : 561 MiB (4%)
Title : AVO_[М.Яроцкий]
Language : Russian
Service kind : Complete Main
Default : No
Forced : No

Audio #5
ID : 6
Format : AC-3
Format/Info : Audio Coding 3
Commercial name : Dolby Digital
Codec ID : A_AC3
Duration : 2 h 2 min
Bit rate mode : Constant
Bit rate : 384 kb/s
Channel(s) : 6 channels
Channel layout : L R C LFE Ls Rs
Sampling rate : 48.0 kHz
Frame rate : 31.250 FPS (1536 SPF)
Compression mode : Lossy
Stream size : 337 MiB (2%)
Title : Дубляж
Language : Ukrainian
Service kind : Complete Main
Default : No
Forced : No

Audio #6
ID : 7
Format : E-AC-3 JOC
Format/Info : Enhanced AC-3 with Joint Object Coding
Commercial name : Dolby Digital Plus with Dolby Atmos
Codec ID : A_EAC3
Duration : 2 h 2 min
Bit rate mode : Constant
Bit rate : 768 kb/s
Channel(s) : 6 channels
Channel layout : L R C LFE Ls Rs
Sampling rate : 48.0 kHz
Frame rate : 31.250 FPS (1536 SPF)
Compression mode : Lossy
Stream size : 673 MiB (4%)
Title : Original
Language : English (US)
Service kind : Complete Main
Default : No
Forced : No
Complexity index : 16
Number of dynamic objects : 15
Bed channel count : 1 channel
Bed channel configuration : LFE

Text #1
ID : 8
Format : UTF-8
Codec ID : S_TEXT/UTF8
Codec ID/Info : UTF-8 Plain Text
Duration : 2 h 0 min
Bit rate : 1 b/s
Frame rate : 0.005 FPS
Count of elements : 34
Stream size : 1.32 KiB (0%)
Title : Forced
Language : Russian
Default : Yes
Forced : Yes

Text #2
ID : 9
Format : UTF-8
Codec ID : S_TEXT/UTF8
Codec ID/Info : UTF-8 Plain Text
Duration : 2 h 1 min
Bit rate : 89 b/s
Frame rate : 0.232 FPS
Count of elements : 1691
Stream size : 79.7 KiB (0%)
Title : Full v.1
Language : Russian
Default : No
Forced : No

Text #3
ID : 10
Format : UTF-8
Codec ID : S_TEXT/UTF8
Codec ID/Info : UTF-8 Plain Text
Duration : 2 h 1 min
Bit rate : 87 b/s
Frame rate : 0.232 FPS
Count of elements : 1691
Stream size : 78.1 KiB (0%)
Title : Full v.2
Language : Russian
Default : No
Forced : No

Text #4
ID : 11
Format : UTF-8
Codec ID : S_TEXT/UTF8
Codec ID/Info : UTF-8 Plain Text
Duration : 2 h 0 min
Bit rate : 1 b/s
Frame rate : 0.004 FPS
Count of elements : 29
Stream size : 1.28 KiB (0%)
Title : Forced
Language : Ukrainian
Default : No
Forced : No

Text #5
ID : 12
Format : UTF-8
Codec ID : S_TEXT/UTF8
Codec ID/Info : UTF-8 Plain Text
Duration : 2 h 1 min
Bit rate : 91 b/s
Frame rate : 0.232 FPS
Count of elements : 1691
Stream size : 81.8 KiB (0%)
Title : Full
Language : Ukrainian
Default : No
Forced : No

Text #6
ID : 13
Format : UTF-8
Codec ID : S_TEXT/UTF8
Codec ID/Info : UTF-8 Plain Text
Duration : 2 h 1 min
Bit rate : 64 b/s
Frame rate : 0.255 FPS
Count of elements : 1859
Stream size : 57.6 KiB (0%)
Title : Full
Language : English (US)
Default : No
Forced : No

Text #7
ID : 14
Format : UTF-8
Codec ID : S_TEXT/UTF8
Codec ID/Info : UTF-8 Plain Text
Duration : 2 h 1 min
Bit rate : 73 b/s
Frame rate : 0.294 FPS
Count of elements : 2150
Stream size : 65.4 KiB (0%)
Title : SDH
Language : English (US)
Default : No
Forced : No

Menu
00:00:00.005 : en:Chapter 01
00:07:47.931 : en:Chapter 02
00:13:09.794 : en:Chapter 03
00:19:13.074 : en:Chapter 04
00:28:12.739 : en:Chapter 05
00:36:32.197 : en:Chapter 06
00:43:21.606 : en:Chapter 07
00:49:38.775 : en:Chapter 08
01:00:17.455 : en:Chapter 09
01:11:12.694 : en:Chapter 10
01:21:31.771 : en:Chapter 11
01:24:06.593 : en:Chapter 12
01:31:18.316 : en:Chapter 13
01:35:11.716 : en:Chapter 14
01:48:29.806 : en:Chapter 15
01:56:24.197 : en:Chapter 16



Что делать, если пишет видео недоступно?
Смотрeть онлайн фильм Крик 6 в хорошем HD 1080 качестве



Описание: Четверо выживших после резни в Вудсборо — сёстры Карпентер и близнецы Чад и Минди — переехали в Нью-Йорк, где пытаются начать ... https://i121.fastpic.org/big/2023/0511/69/762c8e1ae04365f8d37ae6fba8bb3569.jpg https://i121.fastpic.org/big/2023/0511/69/762c8e1ae04365f8d37ae6fba8bb3569.jpg 2023-05-11 03:54 Cмотреть онлайн Крик 6 true ru Скачать Крик 6 через торрент, смотреть онлайн Крик 6 https://i121.fastpic.org/big/2023/0511/69/762c8e1ae04365f8d37ae6fba8bb3569.jpg Скачать, смотреть онлайн Крик 6 бесплатно в хорошем качестве Описание: Четверо выживших после резни в Вудсборо — сёстры Карпентер и близнецы Чад и Минди — переехали в Нью-Йорк, где пытаются начать ... 10 10 9
Info! Золотая раздача, скачанное не засчитывается.
Торрент: Зарегистрирован [2023-05-11 03:54] · скачан: 213 раз
Статус: √ проверено
Размер: 15.09 GB
Как cкачать? Как скачать Крик 6 через торрент | UTorrent | Поделиться в телеграм

% Раздел Тема Автор DL S | L
Ultra HD (UHD: 2K, 4K, 8K) [ 72.54 GB ] Крик 6 / Scream VI | Лицензия | 2160p, (Dolby Vision bober100 Скачать
1 | 0
Фильмы [HD 720p, 1080p] (Хороший звук DUB, MVO) [ 5.67 GB ] Крик 6 / Scream VI | Лицензия | 720p bober100 Скачать
2 | 0
Фильмы [HD 720p, 1080p] (Хороший звук DUB, MVO) [ 9.76 GB ] Крик 6 / Scream VI | Лицензия | 1080p bober100 Скачать
1 | 0
Фильмы [HD 720p, 1080p] (Хороший звук DUB, MVO) [ 64.82 GB ] Крик 6 / Scream VI | Лицензия | 2160p, (Dolby Vision Profile 8 bober100 Скачать
1 | 0
Фильмы (Blu-ray, BD-Remux, HDDVD) [ 28.92 GB ] Крик 6 / Scream VI | Лицензия | BD Remux 1080p bober100 Скачать
1 | 0
Фильмы 2022-2023 [DVDrip, WEB-DLRip, HDrip] (DUB, MVO) [ 746 MB ] Крик 6 / Scream VI | Лицензия" | DLRip, Дубляж "Лицензия" coc900 Скачать
1 | 0
Фильмы 2022-2023 [DVDrip, WEB-DLRip, HDrip] (DUB, MVO) [ 2.27 GB ] Крик 6 / Scream VI | Лицензия | BDRip-AVC bober100 Скачать
3 | 0

28-11-2019 20:33  


Отключить вcю реклaмy на сайте, в т.ч. и в плеере онлайн просмотра!

    Дорогой пользователь! Огромная просьба, поблагодарите релизера, оцените раздачу и оставьте свои комментарий, если Вы скачали Крик 6 через торрент бесплатно!!
    Комментировать посты могут только пользователи прошедшие не сложную регистрацию
    Показать сообщения:    


    смотреть онлайн Крик 6
    Крик 6 через торрент
    Скачать бесплатно Крик 6
    Крик 6 скачать торрент
    Крик 6 смотреть онлайн
    Cкачать фильм Крик 6 бесплатно
    Крик 6 скачать торрент в хорошем качестве
    Крик 6 смотреть онлайн бесплатно в хорошем качестве
    Вы не можете начинать темы
    Вы не можете отвечать на сообщения
    Вы не можете редактировать свои сообщения
    Вы не можете удалять свои сообщения
    Вы не можете голосовать в опросах
    Вы не можете прикреплять файлы к сообщениям
    Вы можете скачивать файлы