Аватар: Путь воды

Дубляж

смотреть онлайн / скачать торрент Гран туризмо

Дубляж

смотреть онлайн / скачать торрент Кентавр

Лицензия

Активация Mortal Kombat 1

Premium

Активация Lies of P

Deluxe

Активация Resident evil 4 remake+DLC Separate Ways

Игра+DLC

смотреть онлайн / скачать торрент Два, три, демон, приди!

MVO

смотреть онлайн / скачать торрент Форсаж 10

Лицензия

смотреть онлайн / скачать торрент Ведьмак / The Witcher / Сезон: 3

3 сезон

смотреть онлайн / скачать торрент Стражи Галактики. Часть 3

Дубляж

Рекомендуем

Рекомендуем

ВАЖНО

ВАЖНО

30

Лицензия

ARMORED CORE™ VI FIRES OF RUBICON™

Steam-Rip

jed

RePack

PAYDAY 3

Пиратка

RDR2

RePack

Hogwarts Legacy

Steam-Rip

смотреть онлайн / скачать торрент Захваченный

Невафильм

смотреть онлайн / скачать торрент Острые козырьки 6 сезон

6 сезон

FAR CRY 6

RePack

смотреть онлайн / скачать торрент Доктор Стрэндж

Лицензия

скачать торрент Dead Island™ 2

EGS-Rip

скачать торрент The Quarry

Steam-Rip

смотреть онлайн / скачать торрент Мэверик

Лицензия

  

Private Specials 4: Italian Mammas (Mamas) / Итальянские мамаши (Gianfranco Romagnoli) [2008 г., Anal, DP, Gonzo, Mature, MILF, Squirt, DVD9]

Private Specials 4: Italian Mammas через торрент pb.wtf

Качают: 1 [ 0 KB/s ]
Размер: 6.64 GB | Добавлен: 4 мес. 9 д. назад | Торрент скачан:49 раз
XBOX GAME PASS [PC] +400 игр (13 мес)

2023-05-18 07:33 Private Specials 4: Italian Mammas Скачать торрент  

Private Specials 4: Italian Mammas (Mamas) / Итальянские мамаши

Год выпуска: 2008
Страна: Италия
Жанр: Anal, DP, Gonzo, Mature, MILF, Squirt
Продолжительность: 02:23:03

Режиссер: Gianfranco Romagnoli

В ролях: Angela Gritti, Antonella del Lago, Federica Tommasi, Sheila Stone, Stella Foliero, Valentine Demi, Cristian Devil, Marco Nero, Omar Galanti, Ricardo Bell

Описание: Italian women. The older they get, the sluttier they are. Watch hot women in their sexual peak get their asses pounded and completely defiled in every way possible

Качество: DVD9
Формат: DVD Video
Видео кодек: MPEG2
Аудио кодек: AC3
Видео: 720x576, MPEG 2, 5000 Кбит/сек
Аудио: Английский, AC3, 2 ch, 192 Кбит/сек
Видео
Идентификатор : 224 (0xE0)
Формат : MPEG Video
Версия формата : Version 2
Профиль формата : Main@Main
Настройки формата : BVOP
Параметр BVOP формата : Да
Параметр матрицы формата : По умолчанию
Параметр GOP формата : M=3, N=7
Структура изображения : Frame
Продолжительность : 23 м. 29 с.
Вид битрейта : Постоянный
Битрейт : 5000 Кбит/сек
Ширина : 720 пикселей
Высота : 576 пикселей
Соотношение сторон : 2,40:1
Частота кадров : 25,000 кадров/сек
Стандарт вещания : PAL
Цветовое пространство : YUV
Субдискретизация насыщенности : 4:2:0
Битовая глубина : 8 бит
Тип развёртки : Чересстрочная
Порядок развёртки : Верхнее поле первое
Метод сжатия : С потерями
Бит/(Пиксели*Кадры) : 0.482
Временной код первого кадра : 10:00:00:00
Оригинал временного кода : Group of pictures header
GOP, открыто/закрыто : Открыто
Размер потока : 842 Мбайт (82%)
Основные цвета : BT.601 PAL
Характеристики трансфера : BT.470 System B/G
Коэффициенты матрицы : BT.470 System B/G

Аудио #1
Идентификатор : 189 (0xBD)-128 (0x80)
Формат : AC-3
Формат/Информация : Audio Coding 3
Коммерческое название : Dolby Digital
Режим смешивания : DVD-Video
Продолжительность : 23 м. 29 с.
Вид битрейта : Постоянный
Битрейт : 192 Кбит/сек
Каналы : 2 канала
ChannelLayout : L R
Частота : 48,0 КГц
Частота кадров : 31,250 кадров/сек (1536 SPF)
Метод сжатия : С потерями
Размер потока : 32,3 Мбайт (3%)
ServiceKind/String : Complete Main

Аудио #2
Идентификатор : 189 (0xBD)-129 (0x81)
Формат : AC-3
Формат/Информация : Audio Coding 3
Коммерческое название : Dolby Digital
Режим смешивания : DVD-Video
Продолжительность : 23 м. 29 с.
Вид битрейта : Постоянный
Битрейт : 192 Кбит/сек
Каналы : 2 канала
ChannelLayout : L R
Частота : 48,0 КГц
Частота кадров : 31,250 кадров/сек (1536 SPF)
Метод сжатия : С потерями
Размер потока : 32,3 Мбайт (3%)
ServiceKind/String : Complete Main

Аудио #3
Идентификатор : 189 (0xBD)-130 (0x82)
Формат : AC-3
Формат/Информация : Audio Coding 3
Коммерческое название : Dolby Digital
Режим смешивания : DVD-Video
Продолжительность : 23 м. 29 с.
Вид битрейта : Постоянный
Битрейт : 192 Кбит/сек
Каналы : 2 канала
ChannelLayout : L R
Частота : 48,0 КГц
Частота кадров : 31,250 кадров/сек (1536 SPF)
Метод сжатия : С потерями
Размер потока : 32,3 Мбайт (3%)
ServiceKind/String : Complete Main

Аудио #4
Идентификатор : 189 (0xBD)-131 (0x83)
Формат : AC-3
Формат/Информация : Audio Coding 3
Коммерческое название : Dolby Digital
Режим смешивания : DVD-Video
Продолжительность : 23 м. 29 с.
Вид битрейта : Постоянный
Битрейт : 192 Кбит/сек
Каналы : 2 канала
ChannelLayout : L R
Частота : 48,0 КГц
Частота кадров : 31,250 кадров/сек (1536 SPF)
Метод сжатия : С потерями
Размер потока : 32,3 Мбайт (3%)
ServiceKind/String : Complete Main

Аудио #5
Идентификатор : 189 (0xBD)-132 (0x84)
Формат : AC-3
Формат/Информация : Audio Coding 3
Коммерческое название : Dolby Digital
Режим смешивания : DVD-Video
Продолжительность : 23 м. 29 с.
Вид битрейта : Постоянный
Битрейт : 192 Кбит/сек
Каналы : 2 канала
ChannelLayout : L R
Частота : 48,0 КГц
Частота кадров : 31,250 кадров/сек (1536 SPF)
Метод сжатия : С потерями
Размер потока : 32,3 Мбайт (3%)
ServiceKind/String : Complete Main






pack Скачать Private Specials 4: Italian Mammas через торрент https://i121.fastpic.org/big/2023/0518/d8/fcae3d22db777f4051b41bba7d31a5d8.jpg Скачать, смотреть онлайн Private Specials 4: Italian Mammas бесплатно в хорошем качестве Описание: Italian women. The older they get, the sluttier they are. Watch hot women in their sexual peak get their asses pounded and ... 9.6 10 5
Info! Золотая раздача, скачанное не засчитывается.
Торрент: Зарегистрирован [2023-05-18 07:33] · скачан: 49 раз
Статус: √ проверено
Размер: 6.64 GB
Как cкачать? Как скачать Private Specials 4: Italian Mammas через торрент | UTorrent | Поделиться в телеграм

28-11-2019 20:33  


Отключить вcю реклaмy на сайте, в т.ч. и в плеере онлайн просмотра!

    Дорогой пользователь! Огромная просьба, поблагодарите релизера, оцените раздачу и оставьте свои комментарий, если Вы скачали Private Specials 4: Italian Mammas через торрент бесплатно!!
    Комментировать посты могут только пользователи прошедшие не сложную регистрацию
    Показать сообщения:    


    Private Specials 4: Italian Mammas через торрент
    Скачать бесплатно Private Specials 4: Italian Mammas
    Private Specials 4: Italian Mammas скачать торрент
    Private Specials 4: Italian Mammas смотреть онлайн
    Cкачать фильм Private Specials 4: Italian Mammas бесплатно
    Private Specials 4: Italian Mammas скачать торрент в хорошем качестве
    Private Specials 4: Italian Mammas смотреть онлайн бесплатно в хорошем качестве
    Вы не можете начинать темы
    Вы не можете отвечать на сообщения
    Вы не можете редактировать свои сообщения
    Вы не можете удалять свои сообщения
    Вы не можете голосовать в опросах
    Вы не можете прикреплять файлы к сообщениям
    Вы можете скачивать файлы