Аватар: Путь воды

Дубляж

смотреть онлайн / скачать торрент Гран туризмо

Дубляж

смотреть онлайн / скачать торрент Кентавр

Лицензия

Активация Cyberpunk 2077+Phantom Liberty

Premium

Активация Lies of P

Deluxe

Активация EA Sports FC 24

Игра+DLC

смотреть онлайн / скачать торрент Два, три, демон, приди!

MVO

смотреть онлайн / скачать торрент Форсаж 10

Лицензия

смотреть онлайн / скачать торрент Ведьмак / The Witcher / Сезон: 3

3 сезон

смотреть онлайн / скачать торрент Стражи Галактики. Часть 3

Дубляж

Рекомендуем

Рекомендуем

ВАЖНО

ВАЖНО

30

Лицензия

ARMORED CORE™ VI FIRES OF RUBICON™

Steam-Rip

jed

RePack

PAYDAY 3

Пиратка

RDR2

RePack

Hogwarts Legacy

Steam-Rip

смотреть онлайн / скачать торрент Захваченный

Невафильм

смотреть онлайн / скачать торрент Острые козырьки 6 сезон

6 сезон

FAR CRY 6

RePack

смотреть онлайн / скачать торрент Доктор Стрэндж

Лицензия

скачать торрент Dead Island™ 2

EGS-Rip

скачать торрент The Quarry

Steam-Rip

смотреть онлайн / скачать торрент Мэверик

Лицензия

  

Король неба / Chang kong zhi wang / Born to Fly (Лю Сяоши) [2023, Боевик, драма, BDRip 1080p] Дубляж [Akimbo Production]

Король неба через торрент pb.wtf

Раздают: 2 [ 152 KB/s ] Качают: 1 [ 0 KB/s ]
Размер: 10.06 GB | Добавлен: 14 д. назад | Торрент скачан:105 раз
STARFIELD активация

2023-09-16 17:44 Король неба Скачать торрент  

Король неба
Chang kong zhi wang / Born to Fly

Год выпуска: 2023
Страна: Китай
Выпущено: Alibaba Pictures, Aviation Industry Corporation of China, Bona Film Group, China Film Co. Ltd., Free Whale Pictures, Laurel Blossom Movie, Magic, Phoenix Entertainment, Shanghai PMF Pictures, Sunac
Жанр: Боевик, драма
Продолжительность: 02:07:43
Перевод: Дублированный | Akimbo Production
Субтитры: Русские (Forced), английские

Режиссер: Лю Сяоши

рейтинг кинопоиск рейтинг imdb

В ролях: Ван Ибо, Ху Цзюнь, Чжоу Дунъюй, Юй Ши, Бу Юй, Чжай Юйцзя, Ван Цзычэнь, Лу Синь, Цюй Чжэмин, Тянь Чжуанчжуан, Чжэн Сяонин, Чжао Цзыци, Ван Цинсян, Цзинь Цзин, Чэнь Тайшэн

Описание: На высоте весь исход полета зависит от точно выверенных действий пилота. Чтобы не допустить роковых ошибок и получить важные данные, испытатели день за днем сражаются со смертью. Смогут ли они выполнить задание и вернуться живыми домой к своим родным?

Качество: BDRip 1080p
Формат: MKV

Видео: MPEG-4 AVC, 1920x804 (2.40:1), 24.000 fps, ~10000 Kbps
Аудио 1: AC3, 6 ch, ~640 kbps - | Русский |
Аудио 2: AC3, 6 ch, ~640 kbps - | Китайский |
скриншот  скриншот  скриншот  скриншот  скриншот  скриншот  

General
Unique ID : 39550349388799397811035203303116584741 (0x1DC11EC6BB01597EB0ED7973A01B3725)
Complete name : G:VideoGBorn.to.Fly.2023.BDRip.1080p.seleZen.mkv
Format : Matroska
Format version : Version 4
File size : 10.1 GiB
Duration : 2 h 7 min
Overall bit rate : 11.3 Mb/s
Frame rate : 24.000 FPS
Movie name : Born.to.Fly.2023.seleZen
Encoded date : 2023-09-16 17:17:44 UTC
Writing application : mkvmerge v63.0.0 ('Everything') 64-bit
Writing library : libebml v1.4.2 + libmatroska v1.6.4

Video
ID : 1
Format : AVC
Format/Info : Advanced Video Codec
Format profile : Progressive [email protected]
Format settings : CABAC / 5 Ref Frames
Format settings, CABAC : Yes
Format settings, Reference : 5 frames
Codec ID : V_MPEG4/ISO/AVC
Duration : 2 h 7 min
Bit rate : 10 000 kb/s
Width : 1 920 pixels
Height : 804 pixels
Display aspect ratio : 2.40:1
Frame rate mode : Constant
Frame rate : 24.000 FPS
Color space : YUV
Chroma subsampling : 4:2:0
Bit depth : 8 bits
Scan type : Progressive
Bits/(Pixel*Frame) : 0.270
Stream size : 8.92 GiB (89%)
Title : WiKi
Writing library : x264 core 157 r2969 d4099dd
Encoding settings : cabac=1 / ref=5 / deblock=1:-3:-3 / analyse=0x3:0x113 / me=umh / subme=11 / psy=1 / psy_rd=1.00:0.00 / mixed_ref=1 / me_range=64 / chroma_me=1 / trellis=2 / 8x8dct=1 / cqm=0 / deadzone=21,11 / fast_pskip=1 / chroma_qp_offset=-4 / threads=25 / lookahead_threads=4 / sliced_threads=0 / nr=0 / decimate=0 / interlaced=0 / bluray_compat=0 / constrained_intra=0 / bframes=8 / b_pyramid=2 / b_adapt=2 / b_bias=0 / direct=3 / weightb=1 / open_gop=0 / weightp=2 / keyint=250 / keyint_min=24 / scenecut=40 / intra_refresh=0 / rc=2pass / mbtree=0 / bitrate=10000 / ratetol=1.0 / qcomp=0.60 / qpmin=0 / qpmax=69 / qpstep=4 / cplxblur=20.0 / qblur=0.5 / ip_ratio=1.40 / pb_ratio=1.30 / aq=1:0.80
Language : English
Default : Yes
Forced : No

Audio #1
ID : 2
Format : AC-3
Format/Info : Audio Coding 3
Commercial name : Dolby Digital
Codec ID : A_AC3
Duration : 2 h 7 min
Bit rate mode : Constant
Bit rate : 640 kb/s
Channel(s) : 6 channels
Channel layout : L R C LFE Ls Rs
Sampling rate : 48.0 kHz
Frame rate : 31.250 FPS (1536 SPF)
Compression mode : Lossy
Stream size : 585 MiB (6%)
Title : Дубляж
Language : Russian
Service kind : Complete Main
Default : Yes
Forced : No

Audio #2
ID : 3
Format : AC-3
Format/Info : Audio Coding 3
Commercial name : Dolby Digital
Format settings : Dolby Surround EX
Codec ID : A_AC3
Duration : 2 h 7 min
Bit rate mode : Constant
Bit rate : 640 kb/s
Channel(s) : 6 channels
Channel layout : L R C LFE Ls Rs
Sampling rate : 48.0 kHz
Frame rate : 31.250 FPS (1536 SPF)
Compression mode : Lossy
Stream size : 585 MiB (6%)
Title : Original
Language : Chinese
Service kind : Complete Main
Default : No
Forced : No

Text #1
ID : 4
Format : UTF-8
Codec ID : S_TEXT/UTF8
Codec ID/Info : UTF-8 Plain Text
Duration : 1 min 9 s
Bit rate : 123 b/s
Frame rate : 0.361 FPS
Count of elements : 25
Stream size : 1.05 KiB (0%)
Title : Forced
Language : Russian
Default : Yes
Forced : No

Text #2
ID : 5
Format : UTF-8
Codec ID : S_TEXT/UTF8
Codec ID/Info : UTF-8 Plain Text
Duration : 1 h 58 min
Bit rate : 49 b/s
Frame rate : 0.268 FPS
Count of elements : 1909
Stream size : 43.2 KiB (0%)
Title : Full
Language : English
Default : No
Forced : No

Menu
00:00:00.000 : en:00:00:00.000
00:04:56.750 : en:00:04:56.750
00:10:58.750 : en:00:10:58.750
00:18:11.625 : en:00:18:11.625
00:24:00.292 : en:00:24:00.292
00:30:12.500 : en:00:30:12.500
00:36:23.833 : en:00:36:23.833
00:41:21.125 : en:00:41:21.125
00:46:02.542 : en:00:46:02.542
00:53:11.792 : en:00:53:11.792
00:58:44.167 : en:00:58:44.167
01:04:42.583 : en:01:04:42.583
01:10:42.208 : en:01:10:42.208
01:18:04.250 : en:01:18:04.250
01:23:07.292 : en:01:23:07.292
01:29:04.500 : en:01:29:04.500
01:37:13.958 : en:01:37:13.958
01:41:44.125 : en:01:41:44.125
01:47:33.875 : en:01:47:33.875
01:54:25.667 : en:01:54:25.667



Что делать, если пишет видео недоступно?
Смотрeть онлайн фильм Король неба в хорошем HD 1080 качестве



Описание: На высоте весь исход полета зависит от точно выверенных действий пилота. Чтобы не допустить роковых ошибок и получить важные ... https://i122.fastpic.org/big/2023/0916/e3/e8378ea8dcebb15b41c38f22996a16e3.jpg https://i122.fastpic.org/big/2023/0916/e3/e8378ea8dcebb15b41c38f22996a16e3.jpg 2023-09-16 17:44 Cмотреть онлайн Король неба true ru Скачать Король неба через торрент, смотреть онлайн Король неба https://i122.fastpic.org/big/2023/0916/e3/e8378ea8dcebb15b41c38f22996a16e3.jpg Скачать, смотреть онлайн Король неба бесплатно в хорошем качестве Описание: На высоте весь исход полета зависит от точно выверенных действий пилота. Чтобы не допустить роковых ошибок и получить важные ... 9.8 10 9
Торрент: Зарегистрирован [2023-09-16 17:44] · скачан: 105 раз
Статус: √ проверено
Размер: 10.06 GB
Как cкачать? Как скачать Король неба через торрент | UTorrent | Поделиться в телеграм

28-11-2019 20:33  


Отключить вcю реклaмy на сайте, в т.ч. и в плеере онлайн просмотра!

2023-09-17 10:29 Король неба Скачать торрент  

Ну такое, на один раз, рейтинг приблизительно 5, фильм на патриотизм давит поэтому такой рейтинг на кинопоиске!



2023-09-19 14:30 Король неба Скачать торрент  

хрень полная, жаль потраченного времени



    Дорогой пользователь! Огромная просьба, поблагодарите релизера, оцените раздачу и оставьте свои комментарий, если Вы скачали Король неба через торрент бесплатно!!
    Комментировать посты могут только пользователи прошедшие не сложную регистрацию
    Показать сообщения:    


    смотреть онлайн Король неба
    Король неба через торрент
    Скачать бесплатно Король неба
    Король неба скачать торрент
    Король неба смотреть онлайн
    Cкачать фильм Король неба бесплатно
    Король неба скачать торрент в хорошем качестве
    Король неба смотреть онлайн бесплатно в хорошем качестве
    Вы не можете начинать темы
    Вы не можете отвечать на сообщения
    Вы не можете редактировать свои сообщения
    Вы не можете удалять свои сообщения
    Вы не можете голосовать в опросах
    Вы не можете прикреплять файлы к сообщениям
    Вы можете скачивать файлы