Ссылка на приватное зеркало нашего сайта всего за 1$. Внимание количество ограничено!!!

2 сезон

iTunes

1 сезон

1

2 сезон

2 сезон

iTunes

1 сезон

RePack

30

Ultimate

ВАЖНО

ИГРА 18+

pack

RePack

MK11
pack

Забери бонус

RePack

jed

!!Акция!!

Alien_Rage

RePack

fifa19

RePack

Assassins Creed: Odyssey

RePack

NEED FOR SPEED™ PAYBACK

4 сезон

9 сезон

Бесстыжие 9 сезон

Все сериалы

все сериалы на PB.wtf

RePack

FAR CRY 5
  

Лара Крофт: Расхитительница гробниц: Дилогия / Lara Croft Tomb Raider: Dilogy (Саймон Уэст / Simon West, Ян де Бонт / Jan de Bont) [2001-2003 г., фэнтези, боевик, триллер, приключения, Blu-ray (Custom)] pb.wtf

Лара Крофт: Расхитительница гробниц: Дилогия через торрент pb.wtf

Размер: 45.99 GB | Добавлен: 9 лет 8 мес. назад | Торрент скачан:74 раза
Скачать  

04-03-2011 10:23 Лара Крофт: Расхитительница гробниц: Дилогия Скачать торрент  

Лара Крофт: Расхитительница гробниц | Lara Croft Tomb Raider
Год выпуска: 2001

Страна: США, Германия, Япония, Великобритания

Выпущено: Mutual Film Corporation, Paramount Pictures

Жанр: фэнтези, боевик, триллер, приключения

Продолжительность: 01:40:32

Перевод:
  • Профессиональный (полное дублирование)

  • Профессиональный (многоголосый, закадровый) два варианта

  • Профессиональный (двухголосый, закадровый) П.Гланц с неизвестной подругой

  • Авторский одноголосый А.Гаврилова

  • Украинский многоголосый, закадровый ICTV

Русские субтитры: Английские, французские, русские

Режиссер: Саймон Уэст / Simon West

В ролях: Анджелина Джоли, Джон Войт, Айэйн Глен, Ноа Тейлор, Дэниэл Крэйг, Ричард Джонсон, Крис Барри, Джулиан Райнд-Татт, Лесли Филлипс, Роберт Филлипс
Описание: В ночь, когда три планеты выстроились в ряд, Лара Крофт обнаружила в коробках, оставшихся ей внаследство от покойного отца, лорда Крофта, таинственные тикающие часы, которые он привез из одной археологической экспедиции двадцать лет назад. Когда-то очень давно отец рассказал ей о засекреченной организации под названием Иллюминати, посвятившей себя розыскам древних часов, которые являются ключом к пространству-времени. Они похожи на треугольник из кристаллического метеоритного материала. Их использовали 5000 лет назад для уничтожения врагов. Если две части треугольника сложить вместе, время остановится, предки вернуться к жизни, а судьба мира изменится навсегда. В распоряжении Лары Крофт есть только 48 часов до тех пор, пока все планеты выстроятся до полного затмения и тогда сила священного треугольника будет особенно мощной. Если это время пропустить, то следующего подобного случая придется ждать еще 5000 лет.
User Rating: 6.929/10 (13,997 votes)
Imdb: 5.4/10 (58,954 votes)
Релиз: Релиз группа:
Качество: Blu-ray / 1 * BD-25
Формат: BDMV
Видео: 1920х1080p / 23,976 fps / 16:9 / Advanced Profile 3, VC1, ~ 20375 kbps
Аудиопоток 1: Английский DTS Audio English 1509 kbps 5.1 / 48 kHz / 1509 kbps / 24-bit
Аудиопоток 2: DTS Audio Russian 768 kbps 5.1 / 48 kHz / 768 kbps / 24-bit (MVO #1)
Аудиопоток 3: DTS Audio Russian 768 kbps 5.1 / 48 kHz / 768 kbps / 24-bit (MVO - Гланц)
Аудиопоток 4: Dolby Digital Audio Russian 448 kbps 5.1 / 48 kHz / 448 kbps / DN -4dB (дубляж) → (исходник) (25 fps)
Аудиопоток 5: Dolby Digital Audio Russian 448 kbps 5.1 / 48 kHz / 448 kbps / DN -4dB (Гаврилов)
Аудиопоток 6: Dolby Digital Audio Russian 384 kbps 5.1 / 48 kHz / 384 kbps / DN -4dB (MVO #2)
Аудиопоток 7: Dolby Digital Audio English 192 kbps 2.0 / 48 kHz / 192 kbps / DN -4dB / Dolby Surround (Commentary)
Аудиопоток 8: Dolby Digital Audio Ukrainian 192 kbps 2.0 / 48 kHz / 192 kbps / DN -4dB (ICTV)


Disc Title:
Disc Size: 24 543 566 098 bytes
Protection: AACS
BD-Java: No
BDInfo: 0.5.3

Notes:

BDINFO HOME:
Cinema Squid
http://www.cinemasquid.com/blu-ray/tools/bdinfo

INCLUDES FORUMS REPORT FOR:
AVS Forum Blu-ray Audio and Video Specifications Thread
http://www.avsforum.com/avs-vb/showthread.php?t=1155731

********************
PLAYLIST: 00001.MPLS
********************

<--- BEGIN FORUMS PASTE --->

Код:

Total   Video
Title                                                           Codec   Length  Movie Size      Disc Size       Bitrate Bitrate Main Audio Track                          Secondary Audio Track
-----                                                           ------  ------- --------------  --------------  ------- ------- ------------------                        ---------------------
00001.MPLS                                                      VC-1    1:40:32 20 165 062 656  24 543 566 098  26,74   20,38   DTS 5.1 1509Kbps (48kHz/24-bit)

Код:

DISC INFO:

Disc Title:
Disc Size:      24 543 566 098 bytes
Protection:     AACS
BD-Java:        No
BDInfo:         0.5.3

PLAYLIST REPORT:

Name:                   00001.MPLS
Length:                 1:40:32 (h:m:s)
Size:                   20 165 062 656 bytes
Total Bitrate:          26,74 Mbps

VIDEO:

Codec                   Bitrate             Description
-----                   -------             -----------
VC-1 Video              20375 kbps          1080p / 23,976 fps / 16:9 / Advanced Profile 3

AUDIO:

Codec                           Language        Bitrate         Description
-----                           --------        -------         -----------
DTS Audio                       English         1509 kbps       5.1 / 48 kHz / 1509 kbps / 24-bit
DTS Audio                       Russian         768 kbps        5.1 / 48 kHz / 768 kbps / 24-bit
DTS Audio                       Russian         768 kbps        5.1 / 48 kHz / 768 kbps / 24-bit
Dolby Digital Audio             Russian         448 kbps        5.1 / 48 kHz / 448 kbps / DN -4dB
Dolby Digital Audio             Russian         384 kbps        5.1 / 48 kHz / 384 kbps / DN -4dB
Dolby Digital Audio             Russian         448 kbps        5.1 / 48 kHz / 448 kbps / DN -4dB
Dolby Digital Audio             English         192 kbps        2.0 / 48 kHz / 192 kbps / DN -4dB / Dolby Surround
Dolby Digital Audio             Ukrainian       192 kbps        2.0 / 48 kHz / 192 kbps / DN -4dB

SUBTITLES:

Codec                           Language        Bitrate         Description
-----                           --------        -------         -----------
Presentation Graphics           English         16,998 kbps
Presentation Graphics           English         18,486 kbps
Presentation Graphics           French          15,123 kbps
Presentation Graphics           Russian         21,443 kbps

FILES:

Name            Time In         Length          Size            Total Bitrate
----            -------         ------          ----            -------------
00002.M2TS      0:00:00.000     1:40:32.359     20 165 062 656  26 743

CHAPTERS:

Number          Time In         Length          Avg Video Rate  Max 1-Sec Rate  Max 1-Sec Time  Max 5-Sec Rate  Max 5-Sec Time  Max 10Sec Rate  Max 10Sec Time  Avg Frame Size  Max Frame Size  Max Frame Time
------          -------         ------          --------------  --------------  --------------  --------------  --------------  --------------  --------------  --------------  --------------  --------------
1               0:00:00.000     0:07:22.817     21 177 kbps     31 898 kbps     00:04:17.840    25 315 kbps     00:00:30.613    24 724 kbps     00:00:30.530    110 493 bytes   357 432 bytes   00:00:30.822
2               0:07:22.817     0:07:41.544     17 199 kbps     28 853 kbps     00:10:33.341    25 412 kbps     00:13:21.592    24 595 kbps     00:10:33.049    89 669 bytes    351 178 bytes   00:14:12.726
3               0:15:04.361     0:08:11.991     20 551 kbps     28 144 kbps     00:16:48.465    24 290 kbps     00:16:45.629    23 610 kbps     00:16:04.421    107 144 bytes   278 803 bytes   00:17:59.536
4               0:23:16.353     0:11:29.313     19 509 kbps     28 689 kbps     00:29:05.160    24 419 kbps     00:30:50.098    23 345 kbps     00:27:25.894    101 713 bytes   270 432 bytes   00:25:49.923
5               0:34:45.666     0:08:24.879     21 399 kbps     31 748 kbps     00:42:18.994    25 443 kbps     00:42:23.165    24 268 kbps     00:42:18.744    111 565 bytes   264 777 bytes   00:42:29.880
6               0:43:10.546     0:06:53.287     21 462 kbps     28 755 kbps     00:45:06.328    24 587 kbps     00:44:55.109    23 606 kbps     00:44:50.312    111 893 bytes   293 617 bytes   00:43:41.493
7               0:50:03.834     0:09:42.290     21 478 kbps     31 617 kbps     00:52:36.319    25 079 kbps     00:59:19.389    24 046 kbps     00:59:19.639    111 977 bytes   284 940 bytes   00:59:38.408
8               0:59:46.124     0:08:07.528     20 611 kbps     27 901 kbps     01:04:07.885    25 429 kbps     01:04:06.217    24 557 kbps     01:04:01.212    107 454 bytes   284 808 bytes   01:04:08.302
9               1:07:53.652     0:08:05.193     21 122 kbps     29 868 kbps     01:10:56.877    25 416 kbps     01:11:14.979    24 757 kbps     01:11:14.728    110 119 bytes   269 637 bytes   01:14:43.562
10              1:15:58.845     0:06:33.434     21 400 kbps     30 016 kbps     01:21:07.362    24 819 kbps     01:21:10.907    23 879 kbps     01:21:05.944    111 568 bytes   272 398 bytes   01:16:36.216
11              1:22:32.280     0:08:50.613     21 694 kbps     29 117 kbps     01:25:53.356    24 229 kbps     01:23:54.112    23 309 kbps     01:24:07.333    113 105 bytes   313 763 bytes   01:23:34.009
12              1:31:22.894     0:09:09.465     17 523 kbps     31 397 kbps     01:40:27.646    25 540 kbps     01:39:03.562    24 769 kbps     01:38:14.847    91 365 bytes    290 451 bytes   01:40:28.188

STREAM DIAGNOSTICS:

File            PID             Type            Codec           Language                Seconds                 Bitrate                 Bytes           Packets
----            ---             ----            -----           --------                --------------          --------------          -------------   -----
00002.M2TS      4113 (0x1011)   0xEA            VC-1                                    6032,235                20 376                  15 363 887 129  83 586 684
00002.M2TS      4352 (0x1100)   0x81            AC3             rus (Russian)           6032,235                448                     337 711 360     1 884 550
00002.M2TS      4353 (0x1101)   0x82            DTS             eng (English)           6032,235                1 509                   1 137 860 260   6 786 443
00002.M2TS      4354 (0x1102)   0x82            DTS             rus (Russian)           6032,235                768                     579 152 896     3 393 474
00002.M2TS      4355 (0x1103)   0x81            AC3             rus (Russian)           6032,235                384                     289 580 544     1 696 761
00002.M2TS      4356 (0x1104)   0x81            AC3             eng (English)           6032,235                192                     144 791 808     942 655
00002.M2TS      4357 (0x1105)   0x81            AC3             ukr (Ukrainian)         6032,235                192                     144 793 344     942 665
00002.M2TS      4358 (0x1106)   0x82            DTS             rus (Russian)           6032,235                768                     579 110 912     3 393 228
00002.M2TS      4359 (0x1107)   0x81            AC3             rus (Russian)           6032,235                448                     337 843 968     1 885 290
00002.M2TS      4608 (0x1200)   0x90            PGS             eng (English)           6032,235                17                      12 817 628      73 778
00002.M2TS      4609 (0x1201)   0x90            PGS             eng (English)           6032,235                18                      13 939 192      80 456
00002.M2TS      4610 (0x1202)   0x90            PGS             fra (French)            6032,235                15                      11 403 476      66 054
00002.M2TS      4611 (0x1203)   0x90            PGS             rus (Russian)           6032,235                21                      16 168 799      92 205

<---- END FORUMS PASTE ---->

QUICK SUMMARY:

Disc Title:
Disc Size: 24 543 566 098 bytes
Protection: AACS
BD-Java: No
Playlist: 00001.MPLS
Size: 20 165 062 656 bytes
Length: 1:40:32
Total Bitrate: 26,74 Mbps
Video: VC-1 Video / 20375 kbps / 1080p / 23,976 fps / 16:9 / Advanced Profile 3
Audio: English / DTS Audio / 5.1 / 48 kHz / 1509 kbps / 24-bit
Audio: Russian / DTS Audio / 5.1 / 48 kHz / 768 kbps / 24-bit
Audio: Russian / DTS Audio / 5.1 / 48 kHz / 768 kbps / 24-bit
Audio: Russian / Dolby Digital Audio / 5.1 / 48 kHz / 448 kbps / DN -4dB
Audio: Russian / Dolby Digital Audio / 5.1 / 48 kHz / 384 kbps / DN -4dB
Audio: Russian / Dolby Digital Audio / 5.1 / 48 kHz / 448 kbps / DN -4dB
Audio: English / Dolby Digital Audio / 2.0 / 48 kHz / 192 kbps / DN -4dB / Dolby Surround
Audio: Ukrainian / Dolby Digital Audio / 2.0 / 48 kHz / 192 kbps / DN -4dB
Subtitle: English / 16,998 kbps
Subtitle: English / 18,486 kbps
Subtitle: French / 15,123 kbps
Subtitle: Russian / 21,443 kbps

********************
PLAYLIST: 00002.MPLS
********************

<--- BEGIN FORUMS PASTE --->

Код:

Total   Video
Title                                                           Codec   Length  Movie Size      Disc Size       Bitrate Bitrate Main Audio Track                          Secondary Audio Track
-----                                                           ------  ------- --------------  --------------  ------- ------- ------------------                        ---------------------
00002.MPLS                                                      MPEG-2  0:25:27 763 926 528     24 543 566 098  4,00    3,44    DD AC3 2.0 192Kbps

Код:

DISC INFO:

Disc Title:
Disc Size:      24 543 566 098 bytes
Protection:     AACS
BD-Java:        No
BDInfo:         0.5.3

PLAYLIST REPORT:

Name:                   00002.MPLS
Length:                 0:25:27 (h:m:s)
Size:                   763 926 528 bytes
Total Bitrate:          4,00 Mbps

VIDEO:

Codec                   Bitrate             Description
-----                   -------             -----------
MPEG-2 Video            3436 kbps           480i / 29,970 fps / 4:3

AUDIO:

Codec                           Language        Bitrate         Description
-----                           --------        -------         -----------
Dolby Digital Audio             English         192 kbps        2.0 / 48 kHz / 192 kbps / DN -7dB

SUBTITLES:

Codec                           Language        Bitrate         Description
-----                           --------        -------         -----------
Presentation Graphics           English         28,891 kbps
Presentation Graphics           English         29,318 kbps
Presentation Graphics           French          24,553 kbps
Presentation Graphics           Russian         0,020 kbps

FILES:

Name            Time In         Length          Size            Total Bitrate
----            -------         ------          ----            -------------
00003.M2TS      0:00:00.000     0:25:27.993     763 926 528     4 000

CHAPTERS:

Number          Time In         Length          Avg Video Rate  Max 1-Sec Rate  Max 1-Sec Time  Max 5-Sec Rate  Max 5-Sec Time  Max 10Sec Rate  Max 10Sec Time  Avg Frame Size  Max Frame Size  Max Frame Time
------          -------         ------          --------------  --------------  --------------  --------------  --------------  --------------  --------------  --------------  --------------  --------------
1               0:00:00.000     0:25:27.993     3 436 kbps      7 743 kbps      00:12:39.191    5 206 kbps      00:13:52.832    4 762 kbps      00:13:52.832    14 330 bytes    190 842 bytes   00:12:39.225

STREAM DIAGNOSTICS:

File            PID             Type            Codec           Language                Seconds                 Bitrate                 Bytes           Packets
----            ---             ----            -----           --------                --------------          --------------          -------------   -----
00003.M2TS      4113 (0x1011)   0x02            MPEG-2                                  1527,926                3 436                   656 236 695     3 593 509
00003.M2TS      4352 (0x1100)   0x81            AC3             eng (English)           1527,926                192                     36 672 000      238 750
00003.M2TS      4608 (0x1200)   0x90            PGS             eng (English)           1527,926                29                      5 518 235       33 136
00003.M2TS      4609 (0x1201)   0x90            PGS             eng (English)           1527,926                29                      5 599 789       33 610
00003.M2TS      4610 (0x1202)   0x90            PGS             fra (French)            1527,926                25                      4 689 576       28 547
00003.M2TS      4611 (0x1203)   0x90            PGS             rus (Russian)           1527,926                0                       3 762           28

<---- END FORUMS PASTE ---->

QUICK SUMMARY:

Disc Title:
Disc Size: 24 543 566 098 bytes
Protection: AACS
BD-Java: No
Playlist: 00002.MPLS
Size: 763 926 528 bytes
Length: 0:25:27
Total Bitrate: 4,00 Mbps
Video: MPEG-2 Video / 3436 kbps / 480i / 29,970 fps / 4:3
Audio: English / Dolby Digital Audio / 2.0 / 48 kHz / 192 kbps / DN -7dB
Subtitle: English / 28,891 kbps
Subtitle: English / 29,318 kbps
Subtitle: French / 24,553 kbps
Subtitle: Russian / 0,020 kbps

VC-1 (HD-DVD трансфер - данный релиз) | MPEG2 (Blu-ray трансфер)
скриншот  скриншот  
скриншот  скриншот  
скриншот  скриншот  
скриншот  скриншот  

• Комментарии Саймона Уэста;
• Детальнее о Tomb Raider;
• Подготовка Лары Крофт;
• Визуальные эффекты Tomb Raider;
• Трюки в фильме;
• "Ты игра?"
• Удаленные сцены;
• Музыкальный клип U2 - Elevation;
• Альтернативные начальные титры;
• Тизер;
• Трейлер;
• Превью.







Лара Крофт: Расхитительница гробниц 2 - Колыбель жизни | Lara Croft Tomb Raider: The Cradle of Life
Год выпуска: 2003

Страна: США

Выпущено: Paramount Pictures

Жанр: фэнтези, боевик, триллер, приключения

Продолжительность: 01:57:58

Перевод:
  • Профессиональный (полное дублирование)

  • Профессиональный (многоголосый, закадровый)

  • Профессиональный (двухголосый, закадровый) П.Гланц с неизвестной подругой

  • Авторский одноголосый Ю.Живова

  • Украинский многоголосый, закадровый ICTV

  • Украинский многоголосый, закадровый Новый канал

Русские субтитры: Английские, русские

Режиссер: Ян де Бонт / Jan de Bont

В ролях: Анджелина Джоли, Джерард Батлер, Киаран Хиндс, Крис Барри, Ноа Тейлор, Джимон Хунсу, Тиль Швайгер, Саймон Ям, Теренс Йин, Даниэль Кальтаджироне
Описание: Во второй серии приключений прекрасной расхитительницы гробниц Лары Крофт география действия становится ещё обширней и экзотичней. Ларе предстоит побывать в Греции, Кении, Танзании, Гонконге и Китае, и, разумеется, не для того, чтобы оценить местные красоты.
Она будет противостоять злодею-интеллектуалу Чену Ло, возглавляющему китайский преступный синдикат. Ло, искусный бизнесмен и хладнокровный убийца, замыслил украсть мифический Ящик Пандоры из ушедшего под воду храма, чтобы использовать его как оружие Судного дня…
User Rating: 6.534/10 (9,283 votes)
Imdb: 5.2/10 (35,078 votes)
Релиз: Релиз группа:
Качество: Blu-ray / 1 * BD-25
Формат: BDMV
Видео: 1920х1080p / 23,976 fps / 16:9 / Advanced Profile 3, VC1, ~ 19644 kbps
Аудиопоток 1: Английский DTS Audio English 1509 kbps 5.1 / 48 kHz / 1509 kbps / 24-bit
Аудиопоток 2: DTS Audio Russian 768 kbps 5.1 / 48 kHz / 768 kbps / 16-bit (MVO - Гланц)
Аудиопоток 3: Dolby Digital Audio Russian 448 kbps 5.1 / 48 kHz / 448 kbps / DN -4dB (дубляж) → В данном релизе (448 kbps) → В рунетном (640 kbps)
Аудиопоток 4: Dolby Digital Audio Russian 384 kbps 5.1 / 48 kHz / 384 kbps / DN -4dB (MVO #2)
Аудиопоток 5: Dolby Digital Audio Russian 448 kbps 5.1 / 48 kHz / 448 kbps / DN -4dB (Живов)
Аудиопоток 6: Dolby Digital Audio Ukrainian 192 kbps 2.0 / 48 kHz / 192 kbps / DN -4dB (ICTV)
Аудиопоток 7: Dolby Digital Audio Ukrainian 192 kbps 2.0 / 48 kHz / 192 kbps / DN -4dB (Новый канал)


Disc Title:
Disc Size: 24 839 526 914 bytes
Protection: AACS
BD-Java: Yes
BDInfo: 0.5.3

Notes:

BDINFO HOME:
Cinema Squid
http://www.cinemasquid.com/blu-ray/tools/bdinfo

INCLUDES FORUMS REPORT FOR:
AVS Forum Blu-ray Audio and Video Specifications Thread
http://www.avsforum.com/avs-vb/showthread.php?t=1155731

********************
PLAYLIST: 00004.MPLS
********************

<--- BEGIN FORUMS PASTE --->

Код:

Total   Video
Title                                                           Codec   Length  Movie Size      Disc Size       Bitrate Bitrate Main Audio Track                          Secondary Audio Track
-----                                                           ------  ------- --------------  --------------  ------- ------- ------------------                        ---------------------
00004.MPLS                                                      VC-1    1:57:19 22 072 915 968  24 839 526 914  25,09   19,64   DTS 5.1 1509Kbps (48kHz/16-bit)

Код:

DISC INFO:

Disc Title:
Disc Size:      24 839 526 914 bytes
Protection:     AACS
BD-Java:        Yes
BDInfo:         0.5.3

PLAYLIST REPORT:

Name:                   00004.MPLS
Length:                 1:57:19 (h:m:s)
Size:                   22 072 915 968 bytes
Total Bitrate:          25,09 Mbps

VIDEO:

Codec                   Bitrate             Description
-----                   -------             -----------
VC-1 Video              19644 kbps          1080p / 23,976 fps / 16:9 / Advanced Profile 3

AUDIO:

Codec                           Language        Bitrate         Description
-----                           --------        -------         -----------
DTS Audio                       English         1509 kbps       5.1 / 48 kHz / 1509 kbps / 16-bit
DTS Audio                       Russian         768 kbps        5.1 / 48 kHz / 768 kbps / 16-bit
Dolby Digital Audio             Russian         448 kbps        5.1 / 48 kHz / 448 kbps / DN -4dB
Dolby Digital Audio             Russian         384 kbps        5.1 / 48 kHz / 384 kbps / DN -4dB
Dolby Digital Audio             Russian         448 kbps        5.1 / 48 kHz / 448 kbps / DN -4dB
Dolby Digital Audio             Ukrainian       192 kbps        2.0 / 48 kHz / 192 kbps / DN -4dB
Dolby Digital Audio             Ukrainian       192 kbps        2.0 / 48 kHz / 192 kbps / DN -4dB

SUBTITLES:

Codec                           Language        Bitrate         Description
-----                           --------        -------         -----------
Presentation Graphics           English         21,570 kbps
Presentation Graphics           Russian         24,893 kbps

FILES:

Name            Time In         Length          Size            Total Bitrate
----            -------         ------          ----            -------------
00416.M2TS      0:00:00.000     1:57:19.032     22 072 915 968  25 086

CHAPTERS:

Number          Time In         Length          Avg Video Rate  Max 1-Sec Rate  Max 1-Sec Time  Max 5-Sec Rate  Max 5-Sec Time  Max 10Sec Rate  Max 10Sec Time  Avg Frame Size  Max Frame Size  Max Frame Time
------          -------         ------          --------------  --------------  --------------  --------------  --------------  --------------  --------------  --------------  --------------  --------------
1               0:00:00.000     0:10:21.287     19 954 kbps     34 146 kbps     00:05:38.421    24 858 kbps     00:06:57.417    22 780 kbps     00:03:17.280    104 219 bytes   555 803 bytes   00:03:13.234
2               0:10:21.287     0:06:31.849     20 098 kbps     32 976 kbps     00:13:14.585    24 504 kbps     00:15:07.489    22 931 kbps     00:15:32.097    104 780 bytes   389 065 bytes   00:16:39.873
3               0:16:53.137     0:03:46.100     19 923 kbps     33 102 kbps     00:19:24.997    23 824 kbps     00:18:59.138    21 816 kbps     00:18:55.259    103 871 bytes   395 335 bytes   00:19:25.122
4               0:20:39.238     0:07:02.839     19 941 kbps     30 960 kbps     00:24:36.808    23 407 kbps     00:22:39.358    21 613 kbps     00:25:44.000    103 962 bytes   439 335 bytes   00:22:41.443
5               0:27:42.077     0:09:31.320     20 149 kbps     33 472 kbps     00:36:18.634    23 584 kbps     00:35:57.947    22 103 kbps     00:31:25.300    105 049 bytes   423 205 bytes   00:36:19.385
6               0:37:13.397     0:05:30.747     20 060 kbps     32 198 kbps     00:41:28.944    22 970 kbps     00:37:32.458    21 762 kbps     00:40:27.383    104 584 bytes   417 005 bytes   00:40:01.732
7               0:42:44.144     0:05:13.563     20 037 kbps     31 015 kbps     00:47:50.033    22 528 kbps     00:45:40.571    21 366 kbps     00:45:04.785    104 463 bytes   386 021 bytes   00:46:37.669
8               0:47:57.708     0:08:10.823     20 010 kbps     33 380 kbps     00:52:44.786    23 661 kbps     00:53:05.640    22 027 kbps     00:52:12.420    104 324 bytes   623 180 bytes   00:53:22.699
9               0:56:08.531     0:06:42.276     20 082 kbps     31 794 kbps     01:02:37.795    23 130 kbps     01:02:02.802    21 697 kbps     00:58:13.323    104 698 bytes   390 022 bytes   01:00:44.015
10              1:02:50.808     0:07:10.388     20 203 kbps     32 535 kbps     01:05:41.270    23 916 kbps     01:09:18.946    22 163 kbps     01:07:54.528    105 327 bytes   402 211 bytes   01:06:51.132
11              1:10:01.197     0:09:34.991     19 886 kbps     31 761 kbps     01:10:59.004    23 260 kbps     01:18:52.811    21 754 kbps     01:15:02.414    103 679 bytes   400 106 bytes   01:15:55.175
12              1:19:36.188     0:07:49.552     20 097 kbps     33 438 kbps     01:25:25.829    25 078 kbps     01:25:30.875    21 778 kbps     01:25:25.870    104 778 bytes   542 136 bytes   01:25:13.942
13              1:27:25.740     0:08:30.468     19 809 kbps     32 003 kbps     01:35:44.321    23 639 kbps     01:34:28.662    21 751 kbps     01:33:24.307    103 274 bytes   425 312 bytes   01:32:18.407
14              1:35:56.208     0:04:26.307     20 269 kbps     34 920 kbps     01:36:12.183    24 641 kbps     01:39:55.531    22 566 kbps     01:39:55.531    105 673 bytes   766 695 bytes   01:39:56.407
15              1:40:22.516     0:07:30.450     20 067 kbps     34 077 kbps     01:40:29.690    23 322 kbps     01:45:27.195    21 902 kbps     01:45:55.515    104 619 bytes   576 631 bytes   01:44:48.740
16              1:47:52.966     0:09:26.065     15 226 kbps     33 128 kbps     01:49:55.171    25 927 kbps     01:56:19.472    23 531 kbps     01:56:17.971    79 448 bytes    466 277 bytes   01:57:18.156

STREAM DIAGNOSTICS:

File            PID             Type            Codec           Language                Seconds                 Bitrate                 Bytes           Packets
----            ---             ----            -----           --------                --------------          --------------          -------------   -----
00416.M2TS      4113 (0x1011)   0xEA            VC-1                                    7038,907                19 644                  17 284 015 758  94 036 625
00416.M2TS      4352 (0x1100)   0x82            DTS             eng (English)           7038,907                1 509                   1 327 736 908   7 918 908
00416.M2TS      4353 (0x1101)   0x81            AC3             rus (Russian)           7038,907                448                     394 184 448     2 199 690
00416.M2TS      4354 (0x1102)   0x81            AC3             rus (Russian)           7038,907                384                     337 849 344     1 979 586
00416.M2TS      4355 (0x1103)   0x81            AC3             ukr (Ukrainian)         7038,907                192                     168 936 192     1 099 845
00416.M2TS      4356 (0x1104)   0x81            AC3             ukr (Ukrainian)         7038,907                192                     168 936 192     1 099 845
00416.M2TS      4357 (0x1105)   0x82            DTS             rus (Russian)           7038,907                768                     675 747 840     3 959 460
00416.M2TS      4358 (0x1106)   0x81            AC3             rus (Russian)           7038,907                448                     394 202 368     2 199 790
00416.M2TS      4608 (0x1200)   0x90            PGS             eng (English)           7038,907                22                      18 979 321      108 137
00416.M2TS      4609 (0x1201)   0x90            PGS             rus (Russian)           7038,907                25                      21 902 461      125 371

<---- END FORUMS PASTE ---->

QUICK SUMMARY:

Disc Title:
Disc Size: 24 839 526 914 bytes
Protection: AACS
BD-Java: Yes
Playlist: 00004.MPLS
Size: 22 072 915 968 bytes
Length: 1:57:19
Total Bitrate: 25,09 Mbps
Video: VC-1 Video / 19644 kbps / 1080p / 23,976 fps / 16:9 / Advanced Profile 3
Audio: English / DTS Audio / 5.1 / 48 kHz / 1509 kbps / 16-bit
Audio: Russian / DTS Audio / 5.1 / 48 kHz / 768 kbps / 16-bit
Audio: Russian / Dolby Digital Audio / 5.1 / 48 kHz / 448 kbps / DN -4dB
Audio: Russian / Dolby Digital Audio / 5.1 / 48 kHz / 384 kbps / DN -4dB
Audio: Russian / Dolby Digital Audio / 5.1 / 48 kHz / 448 kbps / DN -4dB
Audio: Ukrainian / Dolby Digital Audio / 2.0 / 48 kHz / 192 kbps / DN -4dB
Audio: Ukrainian / Dolby Digital Audio / 2.0 / 48 kHz / 192 kbps / DN -4dB
Subtitle: English / 21,570 kbps
Subtitle: Russian / 24,893 kbps

********************
PLAYLIST: 00005.MPLS
********************

<--- BEGIN FORUMS PASTE --->

Код:

Total   Video
Title                                                           Codec   Length  Movie Size      Disc Size       Bitrate Bitrate Main Audio Track                          Secondary Audio Track
-----                                                           ------  ------- --------------  --------------  ------- ------- ------------------                        ---------------------
00005.MPLS                                                      VC-1    1:57:19 22 072 915 968  24 839 526 914  25,09   19,64   DTS 5.1 1509Kbps (48kHz/16-bit)

Код:

DISC INFO:

Disc Title:
Disc Size:      24 839 526 914 bytes
Protection:     AACS
BD-Java:        Yes
BDInfo:         0.5.3

PLAYLIST REPORT:

Name:                   00005.MPLS
Length:                 1:57:19 (h:m:s)
Size:                   22 072 915 968 bytes
Total Bitrate:          25,09 Mbps

VIDEO:

Codec                   Bitrate             Description
-----                   -------             -----------
VC-1 Video              19644 kbps          1080p / 23,976 fps / 16:9 / Advanced Profile 3

AUDIO:

Codec                           Language        Bitrate         Description
-----                           --------        -------         -----------
DTS Audio                       English         1509 kbps       5.1 / 48 kHz / 1509 kbps / 16-bit
DTS Audio                       Russian         768 kbps        5.1 / 48 kHz / 768 kbps / 16-bit
Dolby Digital Audio             Russian         448 kbps        5.1 / 48 kHz / 448 kbps / DN -4dB
Dolby Digital Audio             Russian         384 kbps        5.1 / 48 kHz / 384 kbps / DN -4dB
Dolby Digital Audio             Russian         448 kbps        5.1 / 48 kHz / 448 kbps / DN -4dB
Dolby Digital Audio             Ukrainian       192 kbps        2.0 / 48 kHz / 192 kbps / DN -4dB
Dolby Digital Audio             Ukrainian       192 kbps        2.0 / 48 kHz / 192 kbps / DN -4dB

SUBTITLES:

Codec                           Language        Bitrate         Description
-----                           --------        -------         -----------
Presentation Graphics           English         21,570 kbps
Presentation Graphics           Russian         24,893 kbps

FILES:

Name            Time In         Length          Size            Total Bitrate
----            -------         ------          ----            -------------
00416.M2TS      0:00:00.000     1:57:19.032     22 072 915 968  25 086

CHAPTERS:

Number          Time In         Length          Avg Video Rate  Max 1-Sec Rate  Max 1-Sec Time  Max 5-Sec Rate  Max 5-Sec Time  Max 10Sec Rate  Max 10Sec Time  Avg Frame Size  Max Frame Size  Max Frame Time
------          -------         ------          --------------  --------------  --------------  --------------  --------------  --------------  --------------  --------------  --------------  --------------
1               0:00:00.000     0:10:21.287     19 954 kbps     34 146 kbps     00:05:38.421    24 858 kbps     00:06:57.417    22 780 kbps     00:03:17.280    104 219 bytes   555 803 bytes   00:03:13.234
2               0:10:21.287     0:06:31.849     20 098 kbps     32 976 kbps     00:13:14.585    24 504 kbps     00:15:07.489    22 931 kbps     00:15:32.097    104 780 bytes   389 065 bytes   00:16:39.873
3               0:16:53.137     0:03:46.100     19 923 kbps     33 102 kbps     00:19:24.997    23 824 kbps     00:18:59.138    21 816 kbps     00:18:55.259    103 871 bytes   395 335 bytes   00:19:25.122
4               0:20:39.238     0:07:02.839     19 941 kbps     30 960 kbps     00:24:36.808    23 407 kbps     00:22:39.358    21 613 kbps     00:25:44.000    103 962 bytes   439 335 bytes   00:22:41.443
5               0:27:42.077     0:09:31.320     20 149 kbps     33 472 kbps     00:36:18.634    23 584 kbps     00:35:57.947    22 103 kbps     00:31:25.300    105 049 bytes   423 205 bytes   00:36:19.385
6               0:37:13.397     0:05:30.747     20 060 kbps     32 198 kbps     00:41:28.944    22 970 kbps     00:37:32.458    21 762 kbps     00:40:27.383    104 584 bytes   417 005 bytes   00:40:01.732
7               0:42:44.144     0:05:13.563     20 037 kbps     31 015 kbps     00:47:50.033    22 528 kbps     00:45:40.571    21 366 kbps     00:45:04.785    104 463 bytes   386 021 bytes   00:46:37.669
8               0:47:57.708     0:08:10.823     20 010 kbps     33 380 kbps     00:52:44.786    23 661 kbps     00:53:05.640    22 027 kbps     00:52:12.420    104 324 bytes   623 180 bytes   00:53:22.699
9               0:56:08.531     0:06:42.276     20 082 kbps     31 794 kbps     01:02:37.795    23 130 kbps     01:02:02.802    21 697 kbps     00:58:13.323    104 698 bytes   390 022 bytes   01:00:44.015
10              1:02:50.808     0:07:10.388     20 203 kbps     32 535 kbps     01:05:41.270    23 916 kbps     01:09:18.946    22 163 kbps     01:07:54.528    105 327 bytes   402 211 bytes   01:06:51.132
11              1:10:01.197     0:09:34.991     19 886 kbps     31 761 kbps     01:10:59.004    23 260 kbps     01:18:52.811    21 754 kbps     01:15:02.414    103 679 bytes   400 106 bytes   01:15:55.175
12              1:19:36.188     0:07:49.552     20 097 kbps     33 438 kbps     01:25:25.829    25 078 kbps     01:25:30.875    21 778 kbps     01:25:25.870    104 778 bytes   542 136 bytes   01:25:13.942
13              1:27:25.740     0:08:30.468     19 809 kbps     32 003 kbps     01:35:44.321    23 639 kbps     01:34:28.662    21 751 kbps     01:33:24.307    103 274 bytes   425 312 bytes   01:32:18.407
14              1:35:56.208     0:04:26.307     20 269 kbps     34 920 kbps     01:36:12.183    24 641 kbps     01:39:55.531    22 566 kbps     01:39:55.531    105 673 bytes   766 695 bytes   01:39:56.407
15              1:40:22.516     0:07:30.450     20 067 kbps     34 077 kbps     01:40:29.690    23 322 kbps     01:45:27.195    21 902 kbps     01:45:55.515    104 619 bytes   576 631 bytes   01:44:48.740
16              1:47:52.966     0:09:26.065     15 226 kbps     33 128 kbps     01:49:55.171    25 927 kbps     01:56:19.472    23 531 kbps     01:56:17.971    79 448 bytes    466 277 bytes   01:57:18.156

STREAM DIAGNOSTICS:

File            PID             Type            Codec           Language                Seconds                 Bitrate                 Bytes           Packets
----            ---             ----            -----           --------                --------------          --------------          -------------   -----
00416.M2TS      4113 (0x1011)   0xEA            VC-1                                    7038,907                19 644                  17 284 015 758  94 036 625
00416.M2TS      4352 (0x1100)   0x82            DTS             eng (English)           7038,907                1 509                   1 327 736 908   7 918 908
00416.M2TS      4353 (0x1101)   0x81            AC3             rus (Russian)           7038,907                448                     394 184 448     2 199 690
00416.M2TS      4354 (0x1102)   0x81            AC3             rus (Russian)           7038,907                384                     337 849 344     1 979 586
00416.M2TS      4355 (0x1103)   0x81            AC3             ukr (Ukrainian)         7038,907                192                     168 936 192     1 099 845
00416.M2TS      4356 (0x1104)   0x81            AC3             ukr (Ukrainian)         7038,907                192                     168 936 192     1 099 845
00416.M2TS      4357 (0x1105)   0x82            DTS             rus (Russian)           7038,907                768                     675 747 840     3 959 460
00416.M2TS      4358 (0x1106)   0x81            AC3             rus (Russian)           7038,907                448                     394 202 368     2 199 790
00416.M2TS      4608 (0x1200)   0x90            PGS             eng (English)           7038,907                22                      18 979 321      108 137
00416.M2TS      4609 (0x1201)   0x90            PGS             rus (Russian)           7038,907                25                      21 902 461      125 371

<---- END FORUMS PASTE ---->

QUICK SUMMARY:

Disc Title:
Disc Size: 24 839 526 914 bytes
Protection: AACS
BD-Java: Yes
Playlist: 00005.MPLS
Size: 22 072 915 968 bytes
Length: 1:57:19
Total Bitrate: 25,09 Mbps
Video: VC-1 Video / 19644 kbps / 1080p / 23,976 fps / 16:9 / Advanced Profile 3
Audio: English / DTS Audio / 5.1 / 48 kHz / 1509 kbps / 16-bit
Audio: Russian / DTS Audio / 5.1 / 48 kHz / 768 kbps / 16-bit
Audio: Russian / Dolby Digital Audio / 5.1 / 48 kHz / 448 kbps / DN -4dB
Audio: Russian / Dolby Digital Audio / 5.1 / 48 kHz / 384 kbps / DN -4dB
Audio: Russian / Dolby Digital Audio / 5.1 / 48 kHz / 448 kbps / DN -4dB
Audio: Ukrainian / Dolby Digital Audio / 2.0 / 48 kHz / 192 kbps / DN -4dB
Audio: Ukrainian / Dolby Digital Audio / 2.0 / 48 kHz / 192 kbps / DN -4dB
Subtitle: English / 21,570 kbps
Subtitle: Russian / 24,893 kbps

Трансферы БД и ХД-ДВД идентичны до пикселя - как следствие и размеры скриншотов одинаковых кадров:

На диске: (добавлены мною, на БД - их не было, выбираются с практически с нуля созданного меню)
• Удаленные сцены;
• Создание фильма - за кадром:
* Визуальные эффекты;
* Постановка трюков;
* Съемки лары крофт;
* Тренировки;
* Оружие и техника.
• Музыкальный клип KORN (с Анджелиной Джоли)



Обложки: exclusive by HQCLUB.


pb.wtf



Скачать Лара Крофт: Расхитительница гробниц: Дилогия через торрент http://i17.fastpic.ru/big/2011/0304/6b/0e55e973cc63db2b8a1990b0844eda6b.jpg Скачать фильм Лара Крофт: Расхитительница гробниц: Дилогия через торрент бесплантно в хорошем качестве Описание: В ночь, когда три планеты выстроились в ряд, Лара Крофт обнаружила в коробках, оставшихся ей внаследство от покойного отца, лорда ... 10 10 3
Info! Золотая раздача, скачанное не засчитывается.
Торрент: Зарегистрирован [2011-03-04 10:23] · скачан: 74 раз
Статус: √ проверено
Размер: 45.99 GB
Как cкачать? Как скачать Лара Крофт: Расхитительница гробниц: Дилогия через торрент | qTorrent

28-11-2019 20:33  

Отключить всю рекламу на сайте

04-03-2011 10:36 Лара Крофт: Расхитительница гробниц: Дилогия Скачать торрент  

Мощно...Класс !pb.wtf



04-03-2011 11:41 Лара Крофт: Расхитительница гробниц: Дилогия Скачать торрент  

Super! Я качаю, спасибо!pb.wtf



    Дорогой пользователь! Огромная просьба, поблагодарите релизера, оцените раздачу и оставьте свои комментарий, если Вы скачали Лара Крофт: Расхитительница гробниц: Дилогия через торрент бесплатно! Внесите свою лепту в развитие PiratBit!
    Комментировать посты могут только пользователи прошедшие не сложную регистрацию
    Показать сообщения:    

    Лара Крофт: Расхитительница гробниц: Дилогия через торрент
    Скачать бесплатно Лара Крофт: Расхитительница гробниц: Дилогия
    Лара Крофт: Расхитительница гробниц: Дилогия скачать торрент
    Лара Крофт: Расхитительница гробниц: Дилогия смотреть онлайн
    Cкачать фильм Лара Крофт: Расхитительница гробниц: Дилогия бесплатно
    Лара Крофт: Расхитительница гробниц: Дилогия скачать торрент в хорошем качестве
    Лара Крофт: Расхитительница гробниц: Дилогия смотреть онлайн бесплатно в хорошем качестве


    Вы не можете начинать темы
    Вы не можете отвечать на сообщения
    Вы не можете редактировать свои сообщения
    Вы не можете удалять свои сообщения
    Вы не можете голосовать в опросах
    Вы не можете прикреплять файлы к сообщениям
    Вы можете скачивать файлы