Ссылка на приватное зеркало нашего сайта всего за 1$. Внимание количество ограничено!!!

2 сезон

iTunes

1 сезон

1

iTunes

iTunes

iTunes

1 сезон

RePack

30

ИГРА 18+

pack

ВАЖНО

!!Акция!!

Alien_RageХит недели

RePack

MK11
pack

Забери бонус

RePack

jed

!!Акция!!

Alien_Rage

RePack

fifa19

RePack

Assassins Creed: Odyssey

RePack

NEED FOR SPEED™ PAYBACK

4 сезон

9 сезон

Бесстыжие 9 сезон

Все сериалы

все сериалы на PB.wtf

RePack

FAR CRY 5
  

Скуби-Ду: Абракадабра-Ду / Scooby-Doo! Abracadabra-Doo (Спайк Брандт, Тони Червоне) [2009 г., мультфильм, детектив, приключения, семейный, DVDRip, лицензия] pb.wtf

Скуби-Ду: Абракадабра-Ду через торрент pb.wtf

Размер: 699 MB | Добавлен: 9 лет 7 мес. назад | Торрент скачан:231 раз
Скачать  

08-03-2011 12:36 Скуби-Ду: Абракадабра-Ду Скачать торрент  

Скуби-Ду: Абракадабра-Ду / Scooby-Doo! Abracadabra-Doo
Год выпуска: 2009
Страна: США
Жанр: мультфильм, детектив, приключения, семейный
Продолжительность: 74 мин.
Русские субтитры: нет
Перевод: Профессиональный (полное дублирование) [Лицензия]
Тип релиза: Лицензия
Режиссер: Спайк Брандт, Тони Червоне
Продюссер: Спайк Брандт, Тони Червоне, Алан Барнетт
Сценарий: Алан Барнетт, Пол Дини, Мисти Ли
Бюджет: $10 500

Мировой рейтинг IMDB 6.70 (169)

В ролях: Фрэнк Уэлкер, Мэттью Лиллард, Минди Кон, Грэй ДеЛисл, Дэйв Аттелль, Ди Брэдли Бейкер, Melique Berger, Дайан Делано, Джон Ди Маджио, Оливия Х
Описание: Группа отправляется в гости к младшей сестре Велмы, Мадлен. Она изучает волшебные фокусы в Академии волшебства «Верлин-Мерлин», где будто бы видели гигантского грифона. Группа решает узнать обо всем подробнее.
Качество: DVDRip
Формат: AVI
Видео кодек: H.26x
Аудио кодек: AC3
Видео: AVC, 720x480 (4/3), 23.976 fps, 1 123 Kbps (0.133 bit/pixel)
Аудио: AC-3, 48.0 KHz, 2 ch, 160 Kbps, CBR (Russian)
Субтитры: отсутствуют
Общее
Уникальный идентификатор : 229968737766194798660412799858752189599 (0xAD025E2A592F9A5190BABE14C6D1749F)
Формат : Matroska
Размер файла : 699 Мбайт
Продолжительность : 1 ч. 16 м.
Общий поток : 1285 Кбит/сек
Дата кодирования : UTC 2011-03-07 13:34:13
Программа кодирования : mkvmerge v4.5.0 ('Speed of Light') built on Feb 1 2011 02:10:32
Библиотека кодирования : libebml v1.2.0 + libmatroska v1.1.0

Видео
Идентификатор : 1
Формат : AVC
Формат/Информация : Advanced Video Codec
Профиль формата : High@L4.0
Параметр CABAC формата : Да
Параметр ReFrames формата : 16 кадры
Идентификатор кодека : V_MPEG4/ISO/AVC
Продолжительность : 1 ч. 16 м.
Битрейт : 1123 Кбит/сек
Ширина : 720 пикс.
Высота : 480 пикс.
Соотношение сторон : 4:3
Частота кадров : 23,976 кадр/сек
Стандарт вещания : NTSC
Цветовое пространство : YUV
Подвыборка цветности : 4:2:0
Битовая глубина : 8 бит
Тип развёртки : Прогрессивная
Бит/(Пиксели*Кадры) : 0.136
Размер потока : 598 Мбайт (86%)
Заголовок : DVDRip.DVD5.by.WoRG
Библиотека кодирования : x264 core 114 r1913 5fd3dce
Настройки программы : cabac=1 / ref=16 / deblock=1:1:1 / analyse=0x3:0x133 / me=umh / subme=10 / psy=1 / psy_rd=0.20:0.00 / mixed_ref=1 / me_range=24 / chroma_me=1 / trellis=2 / 8x8dct=1 / cqm=0 / deadzone=21,11 / fast_pskip=1 / chroma_qp_offset=-1 / threads=6 / sliced_threads=0 / nr=0 / decimate=1 / interlaced=0 / constrained_intra=0 / bframes=12 / b_pyramid=2 / b_adapt=2 / b_bias=0 / direct=3 / weightb=1 / open_gop=0 / weightp=2 / keyint=250 / keyint_min=23 / scenecut=40 / intra_refresh=0 / rc_lookahead=60 / rc=2pass / mbtree=1 / bitrate=1123 / ratetol=1.0 / qcomp=0.60 / qpmin=10 / qpmax=51 / qpstep=4 / cplxblur=20.0 / qblur=0.5 / ip_ratio=1.40 / aq=1:0.60
Язык : English

Аудио
Идентификатор : 2
Формат : AC-3
Формат/Информация : Audio Coding 3
Расширение режима : CM (complete main)
Идентификатор кодека : A_AC3
Продолжительность : 1 ч. 16 м.
Вид битрейта : Постоянный
Битрейт : 160 Кбит/сек
Канал(ы) : 2 канала(ов)
Расположение каналов : Front: L R
Частота : 48,0 КГц
Битовая глубина : 16 бит
Метод сжатия : С потерями
Размер потока : 87,0 Мбайт (12%)
Заголовок : DUB
Язык : Russian
скриншот  скриншот  скриншот  


pb.wtf



Скачать Скуби-Ду: Абракадабра-Ду через торрент http://i2.fastpic.ru/big/2010/0222/a5/9a2b5f54b5d44e6c0790d624fa98f7a5.jpg Скачать фильм Скуби-Ду: Абракадабра-Ду через торрент бесплантно в хорошем качестве Описание: Группа отправляется в гости к младшей сестре Велмы, Мадлен. Она изучает волшебные фокусы в Академии волшебства «Верлин-Мерлин», ... 10 10 2
Info! Золотая раздача, скачанное не засчитывается.
Торрент: Зарегистрирован [2011-03-08 12:36] · скачан: 231 раз
Статус: √ проверено
Размер: 699 MB
Как cкачать? Как скачать Скуби-Ду: Абракадабра-Ду через торрент | qTorrent

% Раздел Тема Автор DL S | L
Иностранные мультфильмы [ 1.37 GB ] Скуби-Ду: Абракадабра-Ду / Scooby-Doo! Abracadabra-Doo [2010 Мультфильм DVDRip][ лицензия ] SD Скачать
1 | 0
Иностранные мультфильмы [ 700 MB ] Скуби-Ду: Абракадабра-Ду / Scooby-Doo! Abracadabra-Doo [2010 мультфильм DVDRip] SD Скачать
1 | 0

28-11-2019 20:33  

Отключить всю рекламу на сайте

12-02-2012 13:31 Скуби-Ду: Абракадабра-Ду Скачать торрент  

Спасибо, ребенок в восторге.pb.wtf



12-02-2012 16:27 Скуби-Ду: Абракадабра-Ду Скачать торрент  

Классный мульт!pb.wtf



    Дорогой пользователь! Огромная просьба, поблагодарите релизера, оцените раздачу и оставьте свои комментарий, если Вы скачали Скуби-Ду: Абракадабра-Ду через торрент бесплатно! Внесите свою лепту в развитие PiratBit!
    Комментировать посты могут только пользователи прошедшие не сложную регистрацию
    Показать сообщения:    

    Скуби-Ду: Абракадабра-Ду через торрент
    Скачать бесплатно Скуби-Ду: Абракадабра-Ду
    Скуби-Ду: Абракадабра-Ду скачать торрент
    Скуби-Ду: Абракадабра-Ду смотреть онлайн
    Cкачать фильм Скуби-Ду: Абракадабра-Ду бесплатно
    Скуби-Ду: Абракадабра-Ду скачать торрент в хорошем качестве
    Скуби-Ду: Абракадабра-Ду смотреть онлайн бесплатно в хорошем качестве


    Вы не можете начинать темы
    Вы не можете отвечать на сообщения
    Вы не можете редактировать свои сообщения
    Вы не можете удалять свои сообщения
    Вы не можете голосовать в опросах
    Вы не можете прикреплять файлы к сообщениям
    Вы можете скачивать файлы