1 сезон

3 сезон

iTunes

1

Line

MVO

iTunes

13

1 сезон

RePack

30

Deluxe

pack

Лицензия

ВАЖНО

ИГРА 18+

pack

RePack

MK11

RePack

jed

RePack

fifa19

RePack

RDR2

RePack

NEED FOR SPEED™ PAYBACK

4 сезон

9 сезон

Бесстыжие 9 сезон

Все сериалы

все сериалы на PB.wtf

RePack

FAR CRY 5

Anonymous, доброй ночи, мы катастрофически не успеваем собрать деньги на оплату серверов, помогите нам пожалуйста 5,10,15р., для нас важна любая помощь . В качестве благодарности мы отключим Вам всю рекламу на сайте (укажите свой ник в строку Ваше имя)!

×
  
Magnet ссылка

Исчезновение на 7-й улице / Vanishing On 7th Street (Брэд Андерсон / Brad Anderson) [2010, США, ужасы, триллер, детектив, DVD5] R5 «New Dream media» pb.wtf

Исчезновение на 7-й улице через торрент pb.wtf

Размер: 3.52 GB | Добавлен: 10 лет назад | Торрент скачан:121 раз
Скачать  

15-03-2011 16:49 Исчезновение на 7-й улице Скачать торрент  


Исчезновение на 7-й улице / Vanishing On 7th Street
«Страх живёт в темноте»
Страна: США
Студия: Herrick Entertainment, Mandalay Vision
Жанр: ужасы, триллер, детектив
Год выпуска: 2010
Мировая премьера: 12 сентября 2010
Российская премьера: 24 февраля 2011, «Top Film Distribution»
Дата выхода DVD: 17 марта 2011, «New Dream media»
Продолжительность: 01:27:35
Перевод: Профессиональный (дублированный) [Лицензия]
Cубтитры: украинские
Режиссер: Брэд Андерсон / Brad Anderson
В ролях: Хейден Кристенсен, Тэнди Ньютон, Джон Легуизамо, Джордан Тровиллион, Тейлор Грутиус, Джейкоб Латимор Артур Картрайт, Кристина Бенжамин, Кортни Бенжамин, Уилл Кларк и др.
Описание: Необъяснимое затмение опускается на город Детройт, к восходу солнца только несколько человек остаются уцелевшими среди куч одежды, брошенных автомобилей и удлиненных теней. Люк, репортер телевидения, находит улицы вокруг своего дома устрашающе пустыми. Пол, киномеханик, оказывается вдруг совершенно один в совсем недавно переполненном кинотеатре. Физиотерапевт Розмари выходит наружу из-за дыма, а возвращается в пустую больницу, Джеймс, испуганный мальчик терпеливо ждет, пока вернется его мать. Каждый из них находит свой путь к захудалому бару, наличие в котором бензинового генератора, запасов еды и питья делают последним прибежищем в опустевшем городе.
Бонусы: нет

Релиз группы:
Качество: DVD5 R5
Формат: DVD-Video
Видео кодек: MPEG2
Аудио кодек: AC3
Видео: PAL 16:9 (720x576(0.498)) MPEG Video, 25,000 кадр/сек, 5166 Кбит/сек
Аудио: Russian (Dolby AC3, 6 ch) 384 Кбит/сек, 48,0 КГц



Title: F
Size: 3.52 Gb ( 3 692 246 KBytes ) - DVD-5
Enabled regions: 1, 2, 3, 4, 5, 6, 7, 8

VTS_01 :
Play Length: 00:00:08
Video: PAL 4:3 (720x576) VBR

VTS_02 :
Play Length: 00:00:07
Video: PAL 4:3 (720x576) VBR
Audio:
English (Dolby AC3, 2 ch)

VTS_03 :
Play Length: 01:27:35
Video: PAL 16:9 (720x576) VBR, Auto Letterboxed
Audio:
Russian (Dolby AC3, 6 ch)
Subtitles:
Ukrainian

VTS_04 :
Play Length: 00:02:18
Video: PAL 16:9 (720x576) VBR, Auto Letterboxed
Audio:
English (Dolby AC3, 6 ch)

Menu Video:
NTSC 4:3 (720x480) VBR
Auto Pan&Scan, Auto Letterboxed
Menu Russian Language Unit :
Root Menu
Chapter (PTT) Menu
Audio Menu
Общее
Полное имя : E:\Новинки 2011\Ischeznovenie.na.7-j.ulitze.2010.DVD5\VIDEO_TS\VTS_03_1.VOB
Формат : MPEG-PS
Размер файла : 1024 Мбайт
Продолжительность : 25 м.
Общий поток : 5663 Кбит/сек

Видео
Идентификатор : 224 (0xE0)
Формат : MPEG Video
Версия формата : Version 2
Профиль формата : Main@Main
Параметр BVOP формата : Да
Параметр матрицы формата : По умолчанию
Продолжительность : 25 м.
Вид битрейта : Переменный
Битрейт : 5166 Кбит/сек
Ширина : 720 пикс.
Высота : 576 пикс.
Соотношение сторон : 16:9
Частота кадров : 25,000 кадр/сек
Стандарт вещания : PAL
Цветовое пространство : YUV
Подвыборка цветности : 4:2:0
Битовая глубина : 8 бит
Тип развёртки : Чересстрочная
Порядок развёртки : Верхнее поле первое
Метод сжатия : С потерями
Бит/(Пиксели*Кадры) : 0.498
Размер потока : 934 Мбайт (91%)

Аудио
Идентификатор : 189 (0xBD)-128 (0x80)
Формат : AC-3
Формат/Информация : Audio Coding 3
Расширение режима : CM (complete main)
Режим смешивания : DVD-Video
Продолжительность : 25 м.
Вид битрейта : Постоянный
Битрейт : 384 Кбит/сек
Канал(ы) : 6 канала(ов)
Расположение каналов : Front: L C R, Side: L R, LFE
Частота : 48,0 КГц
Битовая глубина : 16 бит
Метод сжатия : С потерями
Размер потока : 69,4 Мбайт (7%)










pb.wtf



Скачать Исчезновение на 7-й улице через торрент http://i4.fastpic.ru/big/2011/0315/2c/0dc4e6fc8ba491856890442f9835272c.jpg Скачать фильм Исчезновение на 7-й улице через торрент бесплантно в хорошем качестве Описание: Необъяснимое затмение опускается на город Детройт, к восходу солнца только несколько человек остаются уцелевшими среди куч ... 4.9 10 9
Info! Золотая раздача, скачанное не засчитывается.
Торрент: Зарегистрирован [2011-03-15 16:49] · скачан: 121 раз
Статус: √ проверено
Размер: 3.52 GB
Как cкачать? Как скачать Исчезновение на 7-й улице через торрент | UTorrent

28-11-2019 20:33  

Отключить всю рекламу на сайте

15-03-2011 17:46 Исчезновение на 7-й улице Скачать торрент  

voovaz Спасибочки!!!!pb.wtf



19-03-2011 13:26 Исчезновение на 7-й улице Скачать торрент  

филь ваще не о чем!pb.wtf



26-03-2011 14:58 Исчезновение на 7-й улице Скачать торрент  

фуфло! просмотр- потерянное время!pb.wtf



    Дорогой пользователь! Огромная просьба, поблагодарите релизера, оцените раздачу и оставьте свои комментарий, если Вы скачали Исчезновение на 7-й улице через торрент бесплатно! Внесите свою лепту в развитие PiratBit!
    Комментировать посты могут только пользователи прошедшие не сложную регистрацию
    Показать сообщения:    

    Исчезновение на 7-й улице через торрент
    Скачать бесплатно Исчезновение на 7-й улице
    Исчезновение на 7-й улице скачать торрент
    Исчезновение на 7-й улице смотреть онлайн
    Cкачать фильм Исчезновение на 7-й улице бесплатно
    Исчезновение на 7-й улице скачать торрент в хорошем качестве
    Исчезновение на 7-й улице смотреть онлайн бесплатно в хорошем качестве


    Вы не можете начинать темы
    Вы не можете отвечать на сообщения
    Вы не можете редактировать свои сообщения
    Вы не можете удалять свои сообщения
    Вы не можете голосовать в опросах
    Вы не можете прикреплять файлы к сообщениям
    Вы можете скачивать файлы