1 сезон

3 сезон

iTunes

1

iTunes

MVO

iTunes

13

1 сезон

RePack

30

Deluxe

pack

Лицензия

ВАЖНО

ИГРА 18+

pack

RePack

MK11

RePack

jed

RePack

fifa19

RePack

RDR2

RePack

NEED FOR SPEED™ PAYBACK

4 сезон

9 сезон

Бесстыжие 9 сезон

Все сериалы

все сериалы на PB.wtf

RePack

FAR CRY 5

Anonymous, доброе утро, мы катастрофически не успеваем собрать деньги на оплату серверов, помогите нам пожалуйста 5,10,15р., для нас важна любая помощь . В качестве благодарности мы отключим Вам всю рекламу на сайте (укажите свой ник в строку Ваше имя)!

×
  
Magnet ссылка

S.W.A.T.: Огненная буря / S.W.A.T.: Firefight (Бенни Бум / Benny Boom) [2011, США, боевик, триллер, криминал, DVD9] R5 «Columbia/Sonpb.wtf

S.W.A.T.: Огненная буря через торрент pb.wtf

Размер: 5.5 GB | Добавлен: 10 лет назад | Торрент скачан:55 раз
Скачать  

20-03-2011 05:40 S.W.A.T.: Огненная буря Скачать торрент  


S.W.A.T.: Огненная буря / S.W.A.T.: Firefight
Страна: США
Студия: RCR Media Group, Stage 6 Films
Жанр: боевик, триллер, криминал
Год выпуска: 2011
Мировая премьера: 1 марта 2011
Дата выхода DVD: 24 марта 2011, «Columbia/Sony»
Продолжительность: 01:24:58
Перевод: Профессиональный (многоголосый закадровый) [Лицензия]
Cубтитры: английские, чешские, мадьярские, польские, арабские, болгарские, хорватские, греческие, хинди, исландские, португальские, румынские, сербские, словацкие, словенские, турецкие, украинские
Оригинальная аудиодорожка: английский
Режиссер: Бенни Бум / Benny Boom
В ролях: Гэбриел Махт, Роберт Патрик, Кристанна Локен, Николас Гонзалез, Карли Поуп, Джанкарло Эспозито, Шеннон Кэйн, Мэтт Бушнелл, Джино Энтони Песи, Эли Бардха и др
Описание: Сюжет строится на переводе лейтенанта Лос-Анджелесской полиции Пола Катлера в Детройт, где он должен натренировать команду местных спецназовцев. Однако, рутинная миссия оказывается ловушкой, подстроенной охраняемым государством одержимого гения, избравшего Катлера своей мишенью.
Бонусы: Как тренируют актёров

Релиз группы:
Качество: DVD9 R5
Формат: DVD-Video
Видео кодек: MPEG2
Аудио кодек: AC3
Видео: PAL 16:9 (720x576(0.575)) MPEG Video,25,000 кадр/сек, 5961 Кбит/сек
Аудио: Russian / English / Czech / Magyar / Polish (Dolby AC3, 6 ch) 448 Кбит/сек, 48,0 КГц



Title: F
Size: 5.50 Gb ( 5 768 878 KBytes ) - DVD-9
Enabled regions: 1, 2, 3, 4, 5, 6, 7, 8

VTS_01 :
Play Length: 01:24:58
Video: PAL 16:9 (720x576) VBR, Auto Letterboxed
Audio:
English (Dolby AC3, 6 ch)
Russian (Dolby AC3, 6 ch)
Czech(Ceske) (Dolby AC3, 6 ch)
Magyar (Dolby AC3, 6 ch)
Polish (Dolby AC3, 6 ch)
Subtitles:
English
Russian
Czech(Ceske)
Magyar
Polish
Arabic
Bulgarian
Hrvatski
Greek
Hindi
Islenska
Portugues
Romanian
Serbian
Slovak
Slovenian
Turkish
Ukrainian
Not specified
Not specified
Not specified
Not specified
Not specified
Not specified
Not specified
Not specified
Not specified
Not specified
Not specified
Not specified
Not specified

VTS_02 :
Play Length: 00:08:44
Video: PAL 16:9 (720x576) VBR, Auto Letterboxed
Audio:
English (Dolby AC3, 2 ch)
Subtitles:
English

VTS_03 :
Play Length: 00:00:14
Video: PAL 16:9 (720x576) VBR, Auto Pan&Scan
Audio:
English (Dolby AC3, 6 ch)

VTS_04 :
Play Length: 00:00:10
Video: PAL 16:9 (720x576) VBR, Auto Letterboxed

VTS_05 :
Play Length: 00:00:08
Video: PAL 16:9 (720x576) VBR, Auto Letterboxed

VTS_06 :
Play Length: 00:00:10
Video: PAL 4:3 (720x576) VBR
Audio:
English (Dolby AC3, 6 ch)
Subtitles:
Russian
Czech(Ceske)
Magyar
Polish
Arabic
Bulgarian
Hrvatski
Greek
Hindi
Islenska
Portugues
Romanian
Serbian
Slovak
Slovenian
Turkish

VTS_07 :
Play Length: 00:00:09
Video: PAL 16:9 (720x576) VBR, Auto Pan&Scan

VTS_08 :
Play Length: 00:00:09
Video: PAL 16:9 (720x576) VBR, Auto Pan&Scan

VTS_09 :
Play Length: 00:00:09
Video: PAL 16:9 (720x576) VBR, Auto Pan&Scan

VTS_10 :
Play Length: 00:00:09
Video: PAL 16:9 (720x576) VBR, Auto Pan&Scan

VTS_11 :
Play Length: 00:00:09
Video: PAL 16:9 (720x576) VBR, Auto Pan&Scan

VTS_12 :
Play Length: 00:00:09
Video: PAL 16:9 (720x576) VBR, Auto Pan&Scan

VTS_13 :
Play Length: 00:00:09
Video: PAL 16:9 (720x576) VBR, Auto Pan&Scan

VTS_14 :
Play Length: 00:00:09
Video: PAL 16:9 (720x576) VBR, Auto Pan&Scan

VTS_15 :
Play Length: 00:00:09
Video: PAL 16:9 (720x576) VBR, Auto Pan&Scan

VTS_16 :
Play Length: 00:00:09
Video: PAL 16:9 (720x576) VBR, Auto Pan&Scan

VTS_17 :
Play Length: 00:00:09
Video: PAL 16:9 (720x576) VBR, Auto Pan&Scan

VTS_18 :
Play Length: 00:00:09
Video: PAL 16:9 (720x576) VBR, Auto Pan&Scan

VTS_19 :
Play Length: 00:00:09
Video: PAL 16:9 (720x576) VBR, Auto Pan&Scan

VTS_20 :
Play Length: 00:00:09
Video: PAL 16:9 (720x576) VBR, Auto Pan&Scan

VTS_21 :
Play Length: 00:00:09
Video: PAL 16:9 (720x576) VBR, Auto Pan&Scan

VTS_22 :
Play Length: 00:00:09
Video: PAL 16:9 (720x576) VBR, Auto Pan&Scan

VTS_23 :
Play Length: 00:00:09
Video: PAL 16:9 (720x576) VBR, Auto Pan&Scan

Menu Video:
PAL 16:9 (720x576) VBR
Auto Pan&Scan, Auto Letterboxed
Menu Subtitles:
Not specified
Menu English Language Unit :
Root Menu
Общее
Полное имя : E:\Новинки 2011\S.W.A.T.Ognennaja.burja.2011.DVD9\VIDEO_TS\VTS_01_1.VOB
Формат : MPEG-PS
Размер файла : 1024 Мбайт
Продолжительность : 17 м.
Общий поток : 8368 Кбит/сек

Видео
Идентификатор : 224 (0xE0)
Формат : MPEG Video
Версия формата : Version 2
Профиль формата : Main@Main
Параметр BVOP формата : Да
Параметр матрицы формата : По умолчанию
Продолжительность : 17 м.
Вид битрейта : Переменный
Битрейт : 5961 Кбит/сек
Номинальный битрейт : 9800 Кбит/сек
Ширина : 720 пикс.
Высота : 576 пикс.
Соотношение сторон : 16:9
Частота кадров : 25,000 кадр/сек
Стандарт вещания : PAL
Цветовое пространство : YUV
Подвыборка цветности : 4:2:0
Битовая глубина : 8 бит
Тип развёртки : Чересстрочная
Порядок развёртки : Верхнее поле первое
Метод сжатия : С потерями
Бит/(Пиксели*Кадры) : 0.575
Размер потока : 730 Мбайт (71%)

Аудио #1
Идентификатор : 189 (0xBD)-128 (0x80)
Формат : AC-3
Формат/Информация : Audio Coding 3
Расширение режима : CM (complete main)
Режим смешивания : DVD-Video
Продолжительность : 17 м.
Вид битрейта : Постоянный
Битрейт : 448 Кбит/сек
Канал(ы) : 6 канала(ов)
Расположение каналов : Front: L C R, Side: L R, LFE
Частота : 48,0 КГц
Битовая глубина : 16 бит
Метод сжатия : С потерями
Размер потока : 54,8 Мбайт (5%)

Аудио #2
Идентификатор : 189 (0xBD)-129 (0x81)
Формат : AC-3
Формат/Информация : Audio Coding 3
Расширение режима : CM (complete main)
Режим смешивания : DVD-Video
Продолжительность : 17 м.
Вид битрейта : Постоянный
Битрейт : 448 Кбит/сек
Канал(ы) : 6 канала(ов)
Расположение каналов : Front: L C R, Side: L R, LFE
Частота : 48,0 КГц
Битовая глубина : 16 бит
Метод сжатия : С потерями
Размер потока : 54,8 Мбайт (5%)

Аудио #3
Идентификатор : 189 (0xBD)-130 (0x82)
Формат : AC-3
Формат/Информация : Audio Coding 3
Расширение режима : CM (complete main)
Режим смешивания : DVD-Video
Продолжительность : 17 м.
Вид битрейта : Постоянный
Битрейт : 448 Кбит/сек
Канал(ы) : 6 канала(ов)
Расположение каналов : Front: L C R, Side: L R, LFE
Частота : 48,0 КГц
Битовая глубина : 16 бит
Метод сжатия : С потерями
Размер потока : 54,8 Мбайт (5%)

Аудио #4
Идентификатор : 189 (0xBD)-131 (0x83)
Формат : AC-3
Формат/Информация : Audio Coding 3
Расширение режима : CM (complete main)
Режим смешивания : DVD-Video
Продолжительность : 17 м.
Вид битрейта : Постоянный
Битрейт : 448 Кбит/сек
Канал(ы) : 6 канала(ов)
Расположение каналов : Front: L C R, Side: L R, LFE
Частота : 48,0 КГц
Битовая глубина : 16 бит
Метод сжатия : С потерями
Размер потока : 54,8 Мбайт (5%)

Аудио #5
Идентификатор : 189 (0xBD)-132 (0x84)
Формат : AC-3
Формат/Информация : Audio Coding 3
Расширение режима : CM (complete main)
Режим смешивания : DVD-Video
Продолжительность : 17 м.
Вид битрейта : Постоянный
Битрейт : 448 Кбит/сек
Канал(ы) : 6 канала(ов)
Расположение каналов : Front: L C R, Side: L R, LFE
Частота : 48,0 КГц
Битовая глубина : 16 бит
Метод сжатия : С потерями
Размер потока : 54,8 Мбайт (5%)




pb.wtf



Скачать S.W.A.T.: Огненная буря через торрент http://i18.fastpic.ru/big/2011/0319/3f/05c5a0c8081b7dc3090f406f4026213f.jpg Скачать фильм S.W.A.T.: Огненная буря через торрент бесплантно в хорошем качестве Описание: Сюжет строится на переводе лейтенанта Лос-Анджелесской полиции Пола Катлера в Детройт, где он должен натренировать команду ... 4.2 10 5
Info! Золотая раздача, скачанное не засчитывается.
Торрент: Зарегистрирован [2011-03-20 05:40] · скачан: 55 раз
Статус: √ проверено
Размер: 5.5 GB
Как cкачать? Как скачать S.W.A.T.: Огненная буря через торрент | UTorrent

28-11-2019 20:33  

Отключить всю рекламу на сайте

    Дорогой пользователь! Огромная просьба, поблагодарите релизера, оцените раздачу и оставьте свои комментарий, если Вы скачали S.W.A.T.: Огненная буря через торрент бесплатно! Внесите свою лепту в развитие PiratBit!
    Комментировать посты могут только пользователи прошедшие не сложную регистрацию
    Показать сообщения:    

    S.W.A.T.: Огненная буря через торрент
    Скачать бесплатно S.W.A.T.: Огненная буря
    S.W.A.T.: Огненная буря скачать торрент
    S.W.A.T.: Огненная буря смотреть онлайн
    Cкачать фильм S.W.A.T.: Огненная буря бесплатно
    S.W.A.T.: Огненная буря скачать торрент в хорошем качестве
    S.W.A.T.: Огненная буря смотреть онлайн бесплатно в хорошем качестве


    Вы не можете начинать темы
    Вы не можете отвечать на сообщения
    Вы не можете редактировать свои сообщения
    Вы не можете удалять свои сообщения
    Вы не можете голосовать в опросах
    Вы не можете прикреплять файлы к сообщениям
    Вы можете скачивать файлы