1 сезон

3 сезон

iTunes

1

iTunes

MVO

iTunes

13

1 сезон

RePack

30

Deluxe

pack

Лицензия

ВАЖНО

ИГРА 18+

pack

RePack

MK11

RePack

jed

RePack

fifa19

RePack

RDR2

RePack

NEED FOR SPEED™ PAYBACK

4 сезон

9 сезон

Бесстыжие 9 сезон

Все сериалы

все сериалы на PB.wtf

RePack

FAR CRY 5

Anonymous, добрый день, мы катастрофически не успеваем собрать деньги на оплату серверов, помогите нам пожалуйста 5,10,15р., для нас важна любая помощь . В качестве благодарности мы отключим Вам всю рекламу на сайте (укажите свой ник в строку Ваше имя)!

×
  
Magnet ссылка

Четыре льва / Four Lions (Кристофер Моррис / Christopher Morris) [2010, Великобритания, драма, комедия, DVD5] pb.wtf

Четыре льва через торрент pb.wtf

Размер: 4.01 GB | Добавлен: 10 лет назад | Торрент скачан:20 раз
Скачать  

20-03-2011 05:45 Четыре льва Скачать торрент  


Четыре льва / Four Lions
Страна: Великобритания
Студия: Film4, Optimum Releasing, Warp Films, Wild Bunch
Жанр: драма, комедия
Год выпуска: 2010
Мировая премьера: 23 января 2010
Российская премьера: 27 января 2011, «RUSCICO»
Дата выхода DVD: 17 марта 2011
Продолжительность: 01:37:03
Перевод: Профессиональный (многоголосый закадровый) [Лицензия]
Cубтитры: нет
Режиссер: Кристофер Моррис / Christopher Morris
В ролях: Кайван Новак, Найджел Линдсэй, Риз Ахмед, Адиль Ахтар, Прия Калидас
Описание: Кинолента «Четыре льва» повествует о четырех шахидах, проживающих на территории Великобритании. Каждый из них одержим мечтой стать знаменитым и отомстить за то, что другие не признают их интересы. Они готовы произвести любой теракт, только вот не знают, с чего начать. Умирать ведь не очень хочется…
Бонусы: нет

Релиз группы:
Качество: DVD5 R5
Формат: DVD-Video
Видео кодек: MPEG2
Аудио кодек: AC3
Видео: PAL 16:9 (720x576(0.482)) MPEG Video,25,000 кадр/сек, 5000 Кбит/сек
Аудио #1: Russian (Dolby AC3, 6 ch) 448 Кбит/сек, 48,0 КГц
Аудио #2: Russian (Dolby AC3, 2 ch) 224 Кбит/сек, 48,0 КГц



Title: F
Size: 4.01 Gb ( 4 203 592 KBytes ) - DVD-5
Enabled regions: 1, 2, 3, 4, 5, 6, 7, 8

VTS_01 :
Play Length: 00:00:15
Video: PAL 4:3 (720x576) VBR
Audio:
Not specified (Dolby AC3, 2 ch)

VTS_02 :
Play Length: 00:00:08
Video: PAL 16:9 (720x576) VBR, Auto Letterboxed
Audio:
Not specified (Dolby AC3, 2 ch)

VTS_03 :
Play Length: 01:37:03
Video: PAL 16:9 (720x576) VBR, Auto Letterboxed
Audio:
Russian (Dolby AC3, 6 ch)
Russian (Dolby AC3, 2 ch)
Общее
Полное имя : E:\Новинки 2011\Chetire.lva.2010.DVD5\VIDEO_TS\VTS_03_1.VOB
Формат : MPEG-PS
Размер файла : 1024 Мбайт
Продолжительность : 24 м.
Общий поток : 5788 Кбит/сек

Видео
Идентификатор : 224 (0xE0)
Формат : MPEG Video
Версия формата : Version 2
Профиль формата : Main@Main
Параметр BVOP формата : Да
Параметр матрицы формата : По умолчанию
Параметры GOP формата : M=3, N=12
Продолжительность : 24 м.
Вид битрейта : Переменный
Битрейт : 5000 Кбит/сек
Номинальный битрейт : 7500 Кбит/сек
Ширина : 720 пикс.
Высота : 576 пикс.
Соотношение сторон : 16:9
Частота кадров : 25,000 кадр/сек
Стандарт вещания : PAL
Цветовое пространство : YUV
Подвыборка цветности : 4:2:0
Битовая глубина : 8 бит
Тип развёртки : Прогрессивная
Метод сжатия : С потерями
Бит/(Пиксели*Кадры) : 0.482
Размер потока : 885 Мбайт (86%)

Аудио #1
Идентификатор : 189 (0xBD)-128 (0x80)
Формат : AC-3
Формат/Информация : Audio Coding 3
Расширение режима : CM (complete main)
Режим смешивания : DVD-Video
Продолжительность : 24 м.
Вид битрейта : Постоянный
Битрейт : 448 Кбит/сек
Канал(ы) : 6 канала(ов)
Расположение каналов : Front: L C R, Side: L R, LFE
Частота : 48,0 КГц
Битовая глубина : 16 бит
Метод сжатия : С потерями
Размер потока : 79,2 Мбайт (8%)

Аудио #2
Идентификатор : 189 (0xBD)-129 (0x81)
Формат : AC-3
Формат/Информация : Audio Coding 3
Расширение режима : CM (complete main)
Режим смешивания : DVD-Video
Продолжительность : 24 м.
Вид битрейта : Постоянный
Битрейт : 224 Кбит/сек
Канал(ы) : 2 канала(ов)
Расположение каналов : Front: L R
Частота : 48,0 КГц
Битовая глубина : 16 бит
Метод сжатия : С потерями
Размер потока : 39,6 Мбайт (4%)










pb.wtf



Скачать Четыре льва через торрент http://i18.fastpic.ru/big/2011/0319/f4/04232c2d456d86a04726bd043fb50bf4.jpg Скачать фильм Четыре льва через торрент бесплантно в хорошем качестве Описание: Кинолента «Четыре льва» повествует о четырех шахидах, проживающих на территории Великобритании. Каждый из них одержим мечтой ... 3.5 10 2
Info! Золотая раздача, скачанное не засчитывается.
Торрент: Зарегистрирован [2011-03-20 05:45] · скачан: 20 раз
Статус: √ проверено
Размер: 4.01 GB
Как cкачать? Как скачать Четыре льва через торрент | UTorrent

% Раздел Тема Автор DL S | L
Фильмы (Blu-ray, BD-Remux, HDDVD) [ 26.82 GB ] Четыре льва / Four Lions [2010 BDRemux 1080p] [MVO] + [AVO] killermax2013 Скачать
1 | 0
Фильмы [HD 720p, 1080p] (Хороший звук DUB, MVO) [ 6.99 GB ] Четыре льва / Four Lions [2010 черная BDRip 720pMVO+ AVO + Original Eng +Sub Rus Eng] Assasinca Скачать
1 | 0
Фильмы 2010 [ 1.53 GB ] Четыре льва / Four Lions [2010 HDRip MVO] lev1244v Скачать
1 | 0
Фильмы 2010 [ 1.37 GB ] Четыре льва / Four Lions [2010 HDRip лицензия] Чупачупсик Скачать
1 | 0
Фильмы [HD 720p, 1080p] (Хороший звук DUB, MVO) [ 4.94 GB ] Четыре льва / Four Lions [Кристофер Моррис] [2010 BDRip 720p] Romeo0502 Скачать
1 | 0
Фильмы 2010 [ 2.22 GB ] Четыре льва / Four Lions [2010 BDRip] shuller Скачать
1 | 0

28-11-2019 20:33  

Отключить всю рекламу на сайте

    Дорогой пользователь! Огромная просьба, поблагодарите релизера, оцените раздачу и оставьте свои комментарий, если Вы скачали Четыре льва через торрент бесплатно! Внесите свою лепту в развитие PiratBit!
    Комментировать посты могут только пользователи прошедшие не сложную регистрацию
    Показать сообщения:    

    Четыре льва через торрент
    Скачать бесплатно Четыре льва
    Четыре льва скачать торрент
    Четыре льва смотреть онлайн
    Cкачать фильм Четыре льва бесплатно
    Четыре льва скачать торрент в хорошем качестве
    Четыре льва смотреть онлайн бесплатно в хорошем качестве


    Вы не можете начинать темы
    Вы не можете отвечать на сообщения
    Вы не можете редактировать свои сообщения
    Вы не можете удалять свои сообщения
    Вы не можете голосовать в опросах
    Вы не можете прикреплять файлы к сообщениям
    Вы можете скачивать файлы