2 сезон

iTunes

1 сезон

1

iTunes

iTunes

iTunes

1 сезон

RePack

30

ИГРА 18+

pack

ВАЖНО

!!Акция!!

Alien_RageХит недели

RePack

MK11
pack

Забери бонус

RePack

jed

!!Акция!!

Alien_Rage

RePack

fifa19

RePack

Assassins Creed: Odyssey

RePack

NEED FOR SPEED™ PAYBACK

4 сезон

9 сезон

Бесстыжие 9 сезон

Все сериалы

все сериалы на PB.wtf

RePack

FAR CRY 5
  

S.W.A.T.: Огненная буря / S.W.A.T.: Firefight (Бенни Бум) [2011 г., Боевик,Триллер,Криминал, BDRip 720p] pb.wtf

S.W.A.T.: Огненная буря через торрент pb.wtf

Размер: 4.64 GB | Добавлен: 9 лет 7 мес. назад | Торрент скачан:57 раз
Скачать  

20-03-2011 09:14 S.W.A.T.: Огненная буря Скачать торрент  

S.W.A.T.: Огненная буря / S.W.A.T.: Firefight
Год выпуска: 2011
Страна: США
Жанр: Боевик,Триллер,Криминал
Продолжительность: 01:28:38
Перевод: Профессиональный (многоголосый, закадровый) [Лицензия]

Режиссер: Бенни Бум
Сценарий: Рид Стейнер, Рэнди Уокер, Майкл Альбанезе, ...
Продюсер: Аманда Коэн, Нил Х. Мориц, Руй Хорхе Тейшейра Да Коста Реис, ...
В ролях: Гэбриел Махт, Роберт Патрик, Кристанна Локен, Николас Гонзалез, Карли Поуп, Джанкарло Эспозито, Шеннон Кэйн, Мэтт Бушнелл, Джино Энтони Песи, Эли Бардха

Описание: Сюжет строится на переводе лейтенанта Лос-Анджелесской полиции Пола Катлера в Детройт, где он должен натренировать команду местных спецназовцев. Однако, рутинная миссия оказывается ловушкой, подстроенной охраняемым государством одержимого гения, избравшего Катлера своей мишенью.


  • Качество: BDRip (720p)
  • Формат: MKV
  • Видео: MPEG-4 AVC, 5537 Кбит/с, 1280x720
  • Аудио №1: Русский (AC3, 6 ch, 448 Кбит/с)
  • Аудио №2: Английский (DTS, 6 ch, 1510 Кбит/с)
  • Субтитры: Русские, английские

Общее
Полное имя : Svat.ognenaja.burja.2011.x264.BDRip(720p)-Kinozal.TV-HD.mkv
Формат : Matroska
Размер файла : 4,64 Гбайт
Продолжительность : 1 ч. 28 м.
Общий поток : 7496 Кбит/сек
Дата кодирования : UTC 2011-03-19 23:10:32
Программа кодирования : mkvmerge v3.4.0 ('Rapunzel') сборка от May 15 2010 09:38:20
Библиотека кодирования : libebml v0.8.0 + libmatroska v0.9.0

Видео
Идентификатор : 1
Формат : AVC
Формат/Информация : Advanced Video Codec
Профиль формата : High@L4.1
Параметр CABAC формата : Да
Параметр ReFrames формата : 9 кадры
Идентификатор кодека : V_MPEG4/ISO/AVC
Продолжительность : 1 ч. 28 м.
Битрейт : 5537 Кбит/сек
Ширина : 1280 пикс.
Высота : 720 пикс.
Соотношение сторон : 16:9
Частота кадров : 23,976 кадр/сек
Цветовое пространство : YUV
Подвыборка цветности : 4:2:0
Битовая глубина : 8 бит
Тип развёртки : Прогрессивная
Бит/(Пиксели*Кадры) : 0.251
Размер потока : 3,34 Гбайт (72%)
Библиотека кодирования : x264 core 114 r1900 60ef1f8
Настройки программы : cabac=1 / ref=9 / deblock=1:-3:-3 / analyse=0x3:0x113 / me=umh / subme=9 / psy=1 / psy_rd=1.10:0.15 / mixed_ref=1 / me_range=32 / chroma_me=1 / trellis=2 / 8x8dct=1 / cqm=2 / deadzone=21,11 / fast_pskip=0 / chroma_qp_offset=-2 / threads=12 / sliced_threads=0 / nr=0 / decimate=1 / interlaced=0 / constrained_intra=0 / bframes=5 / b_pyramid=2 / b_adapt=2 / b_bias=0 / direct=3 / weightb=1 / open_gop=0 / weightp=2 / keyint=250 / keyint_min=23 / scenecut=40 / intra_refresh=0 / rc_lookahead=60 / rc=2pass / mbtree=1 / bitrate=5537 / ratetol=1.0 / qcomp=0.60 / qpmin=1 / qpmax=63 / qpstep=4 / cplxblur=20.0 / qblur=0.5 / vbv_maxrate=40000 / vbv_bufsize=30000 / nal_hrd=none / ip_ratio=1.40 / aq=1:0.80

Аудио #1
Идентификатор : 2
Формат : AC-3
Формат/Информация : Audio Coding 3
Расширение режима : CM (complete main)
Идентификатор кодека : A_AC3
Продолжительность : 1 ч. 28 м.
Вид битрейта : Постоянный
Битрейт : 448 Кбит/сек
Канал(ы) : 6 канала(ов)
Расположение каналов : Front: L C R, Side: L R, LFE
Частота : 48,0 КГц
Битовая глубина : 16 бит
Метод сжатия : С потерями
Размер потока : 284 Мбайт (6%)
Язык : Russian

Аудио #2
Идентификатор : 3
Формат : DTS
Формат/Информация : Digital Theater Systems
Идентификатор кодека : A_DTS
Продолжительность : 1 ч. 28 м.
Вид битрейта : Постоянный
Битрейт : 1510 Кбит/сек
Канал(ы) : 6 канала(ов)
Расположение каналов : Front: L C R, Side: L R, LFE
Частота : 48,0 КГц
Битовая глубина : 24 бит
Метод сжатия : С потерями
Размер потока : 957 Мбайт (20%)
Язык : English

Текст #1
Идентификатор : 4
Формат : UTF-8
Идентификатор кодека : S_TEXT/UTF8
Идентификатор кодека/Информация : UTF-8 Plain Text
Язык : Russian

Текст #2
Идентификатор : 5
Формат : UTF-8
Идентификатор кодека : S_TEXT/UTF8
Идентификатор кодека/Информация : UTF-8 Plain Text
Язык : English


скриншот  скриншот  скриншот  скриншот  

pb.wtf



Скачать S.W.A.T.: Огненная буря через торрент http://i4.fastpic.ru/big/2011/0225/d0/2f43acdcd2d3b3e2315d7630b595bad0.jpg Скачать фильм S.W.A.T.: Огненная буря через торрент бесплантно в хорошем качестве Описание: Сюжет строится на переводе лейтенанта Лос-Анджелесской полиции Пола Катлера в Детройт, где он должен натренировать команду ... 5 10 8
Info! Золотая раздача, скачанное не засчитывается.
Торрент: Зарегистрирован [2011-03-20 09:15] · скачан: 57 раз
Статус: √ проверено
Размер: 4.64 GB
Как cкачать? Как скачать S.W.A.T.: Огненная буря через торрент | qTorrent

% Раздел Тема Автор DL S | L
Фильмы 2011 [ 1.37 GB ] S.W.A.T.: Огненная буря / S.W.A.T.: Firefight [2011 HDRip лицензия] Lil Badun Скачать
1 | 0
Фильмы 2011 [ 746 MB ] S.W.A.T.: Огненная буря / S.W.A.T.: Firefight [2011 HDRip] MVO -=Cherry=- Скачать
1 | 0
Фильмы (DVD фильмы) [ 5.5 GB ] S.W.A.T.: Огненная буря / S.W.A.T.: Firefight [2011 DVD9] R5 «Columbia/Sony» voovaz Скачать
1 | 0

28-11-2019 20:33  

Отключить всю рекламу на сайте

    Дорогой пользователь! Огромная просьба, поблагодарите релизера, оцените раздачу и оставьте свои комментарий, если Вы скачали S.W.A.T.: Огненная буря через торрент бесплатно! Внесите свою лепту в развитие PiratBit!
    Комментировать посты могут только пользователи прошедшие не сложную регистрацию
    Показать сообщения:    

    S.W.A.T.: Огненная буря через торрент
    Скачать бесплатно S.W.A.T.: Огненная буря
    S.W.A.T.: Огненная буря скачать торрент
    S.W.A.T.: Огненная буря смотреть онлайн
    Cкачать фильм S.W.A.T.: Огненная буря бесплатно
    S.W.A.T.: Огненная буря скачать торрент в хорошем качестве
    S.W.A.T.: Огненная буря смотреть онлайн бесплатно в хорошем качестве


    Вы не можете начинать темы
    Вы не можете отвечать на сообщения
    Вы не можете редактировать свои сообщения
    Вы не можете удалять свои сообщения
    Вы не можете голосовать в опросах
    Вы не можете прикреплять файлы к сообщениям
    Вы можете скачивать файлы