1 сезон

3 сезон

iTunes

1

iTunes

MVO

iTunes

13

1 сезон

RePack

30

Deluxe

pack

Лицензия

ВАЖНО

ИГРА 18+

pack

RePack

MK11

RePack

jed

RePack

fifa19

RePack

RDR2

RePack

NEED FOR SPEED™ PAYBACK

4 сезон

9 сезон

Бесстыжие 9 сезон

Все сериалы

все сериалы на PB.wtf

RePack

FAR CRY 5

Anonymous, доброе утро, мы катастрофически не успеваем собрать деньги на оплату серверов, помогите нам пожалуйста 5,10,15р., для нас важна любая помощь . В качестве благодарности мы отключим Вам всю рекламу на сайте (укажите свой ник в строку Ваше имя)!

×
  
Magnet ссылка

Рамона и Бизус / Ramona and Beezus (Элизабет Аллен / Elizabeth Allen) [2010, США, фэнтези, комедия, приключения, семейный, DVD9] R5 «Двадцатый Век Фокс СНГ» pb.wtf

Рамона и Бизус через торрент pb.wtf

Размер: 5.86 GB | Добавлен: 10 лет назад | Торрент скачан:25 раз
Скачать  

21-03-2011 19:28 Рамона и Бизус Скачать торрент  


Рамона и Бизус / Ramona and Beezus
«A Little Sister Goes A Long Way.»
Страна: США
Студия: DiNovi Pictures, Fox 2000 Pictures, Walden Media
Жанр: фэнтези, комедия, приключения, семейный
Год выпуска: 2010
Мировая премьера: 23 июля 2010
Российская премьера: 24 марта 2011, «Двадцатый Век Фокс СНГ»
Продолжительность: 01:39:16
Перевод: Профессиональный (многоголосый закадровый) [Лицензия]
Cубтитры: русские, английские, арабские, польские, украинские
Оригинальная аудиодорожка: английский
Режиссер: Элизабет Аллен / Elizabeth Allen
В ролях: Джои Кинг, Селена Гомес, Джон Корбетт, Бриджет Мойнэхэн, Джиннифер Гудвин, Джош Дюамель, Джейсон Спивак, Сьерра МакКормик, Сандра О, Кэтрин Зэнна
Описание: В центре сюжета находятся две сестры — предприимчивая Рамона и ее старшая сестра Беатрис по прозвищу Бизус.
Бонусы: Удаленные сцены, киношкола "Покажи и назови", дубли с приколами, моя Рамона с автором Беверли Клири, Кинотеатральный ролик

Качество: DVD9 R5
Формат: DVD-Video
Видео кодек: MPEG2
Аудио кодек: AC3
Видео: PAL 16:9 (720x576(0.533)) MPEG Video,25,000 кадр/сек, 5529 Кбит/сек
Аудио: Russian / Polish (Dolby AC3, 6 ch) 384 Кбит/сек, 48,0 КГц, English (Dolby AC3, 6 ch) 448 Кбит/сек



Title: F
Size: 5.86 Gb ( 6 139 686,00 KBytes ) - DVD-9
Enabled regions: 1, 2, 3, 4, 5, 6, 7, 8

VTS_01 :
Play Length: 00:00:01
Video: PAL 16:9 (720x576) VBR, Auto Pan&Scan
Audio:
Not specified (Dolby AC3, 2 ch)
Not specified (Dolby AC3, 2 ch)
Not specified (Dolby AC3, 2 ch)
Not specified (Dolby AC3, 2 ch)
Not specified (Dolby AC3, 2 ch)
Not specified (Dolby AC3, 2 ch)
Not specified (Dolby AC3, 2 ch)
Not specified (Dolby AC3, 2 ch)
Subtitles:
Not specified
Not specified
Not specified
Not specified
Not specified
Not specified
Not specified
Not specified
Not specified
Not specified
Not specified
Not specified

VTS_02 :
Play Length: 01:39:16
Video: PAL 16:9 (720x576) VBR, Auto Letterboxed
Audio:
English (Dolby AC3, 6 ch)
Russian (Dolby AC3, 6 ch)
Polish (Dolby AC3, 6 ch)
Subtitles:
English
Russian
Arabic
Polish
Ukrainian
Russian
Polish

VTS_03 :
Play Length: 00:00:25
Video: PAL 16:9 (720x576) VBR, Auto Letterboxed
Audio:
Not specified (Dolby AC3, 6 ch)

VTS_04 :
Play Length: 00:07:03+00:02:44+00:04:04+00:04:09+00:01:09+00:01:36+00:00:40+00:00:46
Video: PAL 16:9 (720x576) VBR, Auto Letterboxed
Audio:
English (Dolby AC3, 2 ch)
Subtitles:
Russian
Polish

VTS_05 :
Play Length: 00:01:39
Video: PAL 16:9 (720x576) VBR, Auto Letterboxed
Audio:
English (Dolby AC3, 6 ch)

* Menus Information *
VIDEO_TS Menu
Video:
PAL 16:9 (720x576) VBR
Auto Pan&Scan
English Language Unit :
Title Menu

VTS_01 Menu
Video:
NTSC 4:3 (720x480) VBR
Auto Pan&Scan, Auto Letterboxed
English Language Unit :
Root Menu

VTS_02 Menu
Video:
PAL 16:9 (720x576) VBR
Auto Pan&Scan
Audio:
Not specified (Dolby AC3, 2 ch)
English Language Unit :
Root Menu
Angle menu

VTS_03 Menu
Video:
NTSC 4:3 (720x480) VBR
Auto Pan&Scan, Auto Letterboxed
English Language Unit :
Root Menu

VTS_04 Menu
Video:
NTSC 4:3 (720x480) VBR
Auto Pan&Scan, Auto Letterboxed
English Language Unit :
Root Menu

VTS_05 Menu
Video:
NTSC 4:3 (720x480) VBR
Auto Pan&Scan, Auto Letterboxed
English Language Unit :
Root Menu
Видео
Идентификатор : 224 (0xE0)
Формат : MPEG Video
Версия формата : Version 2
Профиль формата : Main@Main
Параметр BVOP формата : Да
Параметр матрицы формата : По умолчанию
Параметры GOP формата : M=3, N=12
Продолжительность : 20 м.
Вид битрейта : Переменный
Битрейт : 5529 Кбит/сек
Номинальный битрейт : 9800 Кбит/сек
Ширина : 720 пикс.
Высота : 576 пикс.
Соотношение сторон : 16:9
Частота кадров : 25,000 кадр/сек
Стандарт вещания : Component
Цветовое пространство : YUV
Подвыборка цветности : 4:2:0
Битовая глубина : 8 бит
Тип развёртки : Прогрессивная
Порядок развёртки : Верхнее поле первое
Метод сжатия : С потерями
Бит/(Пиксели*Кадры) : 0.533
Размер потока : 823 Мбайт (80%)

Аудио #1
Идентификатор : 189 (0xBD)-128 (0x80)
Формат : AC-3
Формат/Информация : Audio Coding 3
Расширение режима : CM (complete main)
Режим смешивания : DVD-Video
Продолжительность : 20 м.
Вид битрейта : Постоянный
Битрейт : 448 Кбит/сек
Канал(ы) : 6 канала(ов)
Расположение каналов : Front: L C R, Side: L R, LFE
Частота : 48,0 КГц
Битовая глубина : 16 бит
Метод сжатия : С потерями
Размер потока : 66,6 Мбайт (7%)

Аудио #2
Идентификатор : 189 (0xBD)-129 (0x81)
Формат : AC-3
Формат/Информация : Audio Coding 3
Расширение режима : CM (complete main)
Режим смешивания : DVD-Video
Продолжительность : 20 м.
Вид битрейта : Постоянный
Битрейт : 384 Кбит/сек
Канал(ы) : 6 канала(ов)
Расположение каналов : Front: L C R, Side: L R, LFE
Частота : 48,0 КГц
Битовая глубина : 16 бит
Метод сжатия : С потерями
Размер потока : 57,1 Мбайт (6%)

Аудио #3
Идентификатор : 189 (0xBD)-130 (0x82)
Формат : AC-3
Формат/Информация : Audio Coding 3
Расширение режима : CM (complete main)
Режим смешивания : DVD-Video
Продолжительность : 20 м.
Вид битрейта : Постоянный
Битрейт : 384 Кбит/сек
Канал(ы) : 6 канала(ов)
Расположение каналов : Front: L C R, Side: L R, LFE
Частота : 48,0 КГц
Битовая глубина : 16 бит
Метод сжатия : С потерями
Размер потока : 57,1 Мбайт (6%)




pb.wtf



Скачать Рамона и Бизус через торрент http://i4.imageban.ru/out/2011/03/21/16dea14b8cf0864ac7bb60fce249c432.jpg Скачать фильм Рамона и Бизус через торрент бесплантно в хорошем качестве Описание: В центре сюжета находятся две сестры — предприимчивая Рамона и ее старшая сестра Беатрис по прозвищу Бизус.Бонусы: Удаленные ... 4 10 2
Info! Золотая раздача, скачанное не засчитывается.
Торрент: Зарегистрирован [2011-03-21 19:28] · скачан: 25 раз
Статус: √ проверено
Размер: 5.86 GB
Как cкачать? Как скачать Рамона и Бизус через торрент | UTorrent

28-11-2019 20:33  

Отключить всю рекламу на сайте

    Дорогой пользователь! Огромная просьба, поблагодарите релизера, оцените раздачу и оставьте свои комментарий, если Вы скачали Рамона и Бизус через торрент бесплатно! Внесите свою лепту в развитие PiratBit!
    Комментировать посты могут только пользователи прошедшие не сложную регистрацию
    Показать сообщения:    

    Рамона и Бизус через торрент
    Скачать бесплатно Рамона и Бизус
    Рамона и Бизус скачать торрент
    Рамона и Бизус смотреть онлайн
    Cкачать фильм Рамона и Бизус бесплатно
    Рамона и Бизус скачать торрент в хорошем качестве
    Рамона и Бизус смотреть онлайн бесплатно в хорошем качестве


    Вы не можете начинать темы
    Вы не можете отвечать на сообщения
    Вы не можете редактировать свои сообщения
    Вы не можете удалять свои сообщения
    Вы не можете голосовать в опросах
    Вы не можете прикреплять файлы к сообщениям
    Вы можете скачивать файлы