Ссылка на приватное зеркало всего за 1$. Внимание количество ограничено!!!

OK

1+1

iTunes

мы

OK

1

WEB-DLRip

Джокер

Пифагор

Ведьмак / The Witcher сериал

Лицензия

ПШазам

ОК

Оно 2

iTunes

30
pack

Вам бонус

ВАЖНО

!!Акция!!

Alien_RageХит недели

RePack

Resident Evil 21

ИГРА 18+

pack

RePack

jed

!!Акция!!

Alien_Rage

RePack

fifa19

RePack

Assassins Creed: Odyssey

RePack

NEED FOR SPEED™ PAYBACK

4 сезон

9 сезон

Бесстыжие 9 сезон

Все сериалы

все сериалы на PB.wtf

RePack

FAR CRY 5
  

Спецзадание Дага / Dug's Special Mission (Роналдо Дел Кармен) [2009 г., мультфильм, короткометражка, фэнтези, семейный, BDRip (720p)] pb.wtf

Спецзадание Дага через торрент pb.wtf

Размер: 175 MB | Добавлен: 8 лет 9 мес. назад | Торрент скачан:147 раз
Скачать  

25-03-2011 20:42 Спецзадание Дага Скачать торрент  

Спецзадание Дага / Dug's Special Mission
Год выпуска: 2009
Страна: США
Жанр: мультфильм, короткометражка, фэнтези, семейный
Продолжительность: 5 мин.
Русские субтитры: есть
Перевод: Профессиональный (полное дублирование) [Лицензия] , Авторский (одноголосый) Д. Строев
Режиссер: Роналдо Дел Кармен
Продюссер: Галин Зусман, Пит Доктер, Джон Лассетер
Мировой рейтинг IMDB 7.00 (651)

В ролях: Боб Питерсон (Dug / Alpha, озвучка), Делрой Линдо (Beta, озвучка), Джером Рэнфт (Gamma, озвучка), Эдвард Эснер (Carl Fredricksen, озвучка, в титрах не указан), Джордан Нагаи (Russell, озвучка, в титрах не указан)
Описание: Короткометражка рассказывает предысторию знакомства Дага — лохматого пса с Карлом и Расселом.
Качество: BDRip (720p)
Формат: Matroska
Видео кодек: AVC
Аудио кодек: AC3
Видео: AVC, 1280x720 (16/9), 23.976 fps, 3 532 Kbps (0.155 bit/pixel)
Аудио #1: AC-3, 48.0 KHz, 6 ch, 384 Kbps, CBR (Russian)
Аудио #2: AC-3, 48.0 KHz, 6 ch, 640 Kbps, CBR (Russian)
Аудио #3: AC-3, 48.0 KHz, 6 ch, 640 Kbps, CBR (English)
Субтитры: Russian, English
General
Complete name : E:\BDRip 720p\Dug's.Special.Mission.2009.BDRip.720p.Rus_x2.Eng.Subs.x264.dxva-VIAgra.mkv
Format : Matroska
File size : 175 MiB
Duration : 4mn 42s
Overall bit rate : 5 197 Kbps
Encoded date : UTC 2010-06-28 15:57:35
Writing application : mkvmerge v3.4.0 ('Rapunzel') built on May 15 2010 09:38:20
Writing library : libebml v0.8.0 + libmatroska v0.9.0

Video
ID : 1
Format : AVC
Format/Info : Advanced Video Codec
Format profile : High@L4.1
Format settings, CABAC : Yes
Format settings, ReFrames : 8 frames
Muxing mode : Container profile=Unknown@4.1
Codec ID : V_MPEG4/ISO/AVC
Duration : 4mn 42s
Bit rate : 3 532 Kbps
Width : 1 280 pixels
Height : 720 pixels
Display aspect ratio : 16:9
Frame rate : 23.976 fps
Color space : YUV
Chroma subsampling : 4:2:0
Bit depth : 8 bits
Scan type : Progressive
Bits/(Pixel*Frame) : 0.160
Stream size : 116 MiB (66%)
Title : x264.dxva-VIAgra
Writing library : x264 core 98 r1649 20cbe10
Encoding settings : cabac=1 / ref=8 / deblock=1:-3:-3 / analyse=0x3:0x113 / me=esa / subme=9 / psy=1 / psy_rd=1.00:0.00 / mixed_ref=1 / me_range=32 / chroma_me=1 / trellis=0 / 8x8dct=1 / cqm=0 / deadzone=21,11 / fast_pskip=0 / chroma_qp_offset=-2 / threads=6 / sliced_threads=0 / nr=0 / decimate=0 / interlaced=0 / constrained_intra=0 / bframes=8 / b_pyramid=2 / b_adapt=2 / b_bias=0 / direct=3 / weightb=1 / weightp=2 / keyint=250 / keyint_min=25 / scenecut=40 / intra_refresh=0 / rc_lookahead=80 / rc=2pass / mbtree=1 / bitrate=3532 / ratetol=1.0 / qcomp=0.70 / qpmin=10 / qpmax=51 / qpstep=4 / cplxblur=20.0 / qblur=0.5 / vbv_maxrate=50000 / vbv_bufsize=62500 / ip_ratio=1.40 / aq=1:0.90 / nal_hrd=none
Language : English

Audio #1
ID : 2
Format : AC-3
Format/Info : Audio Coding 3
Mode extension : CM (complete main)
Codec ID : A_AC3
Duration : 4mn 42s
Bit rate mode : Constant
Bit rate : 384 Kbps
Channel(s) : 6 channels
Channel positions : Front: L C R, Side: L R, LFE
Sampling rate : 48.0 KHz
Stream size : 12.9 MiB (7%)
Title : AC3; 384 Kbps @ 5.1 ch (Dub)
Language : Russian

Audio #2
ID : 3
Format : AC-3
Format/Info : Audio Coding 3
Mode extension : CM (complete main)
Codec ID : A_AC3
Duration : 4mn 42s
Bit rate mode : Constant
Bit rate : 640 Kbps
Channel(s) : 6 channels
Channel positions : Front: L C R, Side: L R, LFE
Sampling rate : 48.0 KHz
Stream size : 21.6 MiB (12%)
Title : AC3; 640 Kbps @ 5.1 ch (AVO) D. Stroev
Language : Russian

Audio #3
ID : 4
Format : AC-3
Format/Info : Audio Coding 3
Mode extension : CM (complete main)
Codec ID : A_AC3
Duration : 4mn 42s
Bit rate mode : Constant
Bit rate : 640 Kbps
Channel(s) : 6 channels
Channel positions : Front: L C R, Side: L R, LFE
Sampling rate : 48.0 KHz
Stream size : 21.6 MiB (12%)
Title : AC3; 640 Kbps @ 5.1 ch
Language : English

Text #1
ID : 5
Format : UTF-8
Codec ID : S_TEXT/UTF8
Codec ID/Info : UTF-8 Plain Text
Language : Russian

Text #2
ID : 6
Format : UTF-8
Codec ID : S_TEXT/UTF8
Codec ID/Info : UTF-8 Plain Text
Language : English

yuv [info]: 1280x720p 0:0 @ 24000/1001 fps (cfr)
x264 [info]: using cpu capabilities: MMX2 SSE2Fast SSSE3 FastShuffle SSE4.2
x264 [info]: profile High, level 4.1
x264 [info]: frame I:63 Avg QP:12.71 size:160127
x264 [info]: frame P:1939 Avg QP:14.30 size: 37338
x264 [info]: frame B:4775 Avg QP:17.24 size: 8849
x264 [info]: consecutive B-frames: 4.1% 3.2% 35.0% 19.1% 13.0% 21.4% 2.4% 1.4% 0.4%
x264 [info]: mb I I16..4: 14.7% 61.9% 23.4%
x264 [info]: mb P I16..4: 2.4% 7.9% 1.9% P16..4: 45.4% 20.8% 14.7% 0.0% 0.0% skip: 6.8%
x264 [info]: mb B I16..4: 0.2% 0.9% 0.4% B16..8: 32.8% 7.6% 2.1% direct: 3.5% skip:52.7% L0:38.1% L1:51.2% BI:10.8%
x264 [info]: 8x8 transform intra:63.7% inter:39.8%
x264 [info]: direct mvs spatial:95.6% temporal:4.4%
x264 [info]: coded y,uvDC,uvAC intra: 80.2% 76.4% 57.1% inter: 17.2% 17.5% 9.6%
x264 [info]: i16 v,h,dc,p: 26% 17% 10% 47%
x264 [info]: i8 v,h,dc,ddl,ddr,vr,hd,vl,hu: 7% 12% 6% 9% 13% 12% 15% 11% 15%
x264 [info]: i4 v,h,dc,ddl,ddr,vr,hd,vl,hu: 6% 8% 4% 9% 17% 14% 16% 11% 15%
x264 [info]: i8c dc,h,v,p: 39% 29% 14% 17%
x264 [info]: Weighted P-Frames: Y:4.1%
x264 [info]: ref P L0: 62.7% 7.7% 11.7% 5.7% 4.1% 3.2% 2.7% 1.6% 0.7% 0.0%
x264 [info]: ref B L0: 74.8% 12.3% 6.2% 2.9% 2.1% 1.2% 0.5%
x264 [info]: ref B L1: 91.1% 8.9%
x264 [info]: kb/s:3530.46

encoded 6777 frames, 4.71 fps, 3530.48 kb/s

скриншот  скриншот  скриншот  скриншот  


pb.wtf



Скачать Спецзадание Дага через торрент http://i8.fastpic.ru/big/2010/0628/ec/8d23011e2ae620619a83bfc91ecdb6ec.jpg Скачать фильм Спецзадание Дага через торрент бесплантно в хорошем качестве Описание: Короткометражка рассказывает предысторию знакомства Дага — лохматого пса с Карлом ... 10 10 4
Info! Золотая раздача, скачанное не засчитывается.
Торрент: Зарегистрирован [2011-03-25 20:42] · скачан: 147 раз
Статус: √ проверено
Размер: 175 MB
Как cкачать? Как скачать Спецзадание Дага через торрент | qTorrent

28-11-2019 20:33  

Отключить всю рекламу на сайте

25-03-2011 21:31 Спецзадание Дага Скачать торрент  

Ничего такой!pb.wtf



    Дорогой пользователь! Огромная просьба, поблагодарите релизера, оцените раздачу и оставьте свои комментарий, если Вы скачали Спецзадание Дага через торрент бесплатно! Внесите свою лепту в развитие PiratBit!
    Комментировать посты могут только пользователи прошедшие не сложную регистрацию
    Показать сообщения:    

    Спецзадание Дага через торрент
    Скачать бесплатно Спецзадание Дага
    Спецзадание Дага скачать торрент
    Спецзадание Дага смотреть онлайн
    Cкачать фильм Спецзадание Дага бесплатно
    Спецзадание Дага скачать торрент в хорошем качестве
    Спецзадание Дага смотреть онлайн бесплатно в хорошем качестве


    Вы не можете начинать темы
    Вы не можете отвечать на сообщения
    Вы не можете редактировать свои сообщения
    Вы не можете удалять свои сообщения
    Вы не можете голосовать в опросах
    Вы не можете прикреплять файлы к сообщениям
    Вы можете скачивать файлы