Ссылка на приватное зеркало нашего сайта всего за 1$. Внимание количество ограничено!!!

2 сезон

iTunes

1 сезон

1

iTunes

iTunes

iTunes

1 сезон

RePack

30

ИГРА 18+

pack

ВАЖНО

!!Акция!!

Alien_RageХит недели

RePack

MK11
pack

Забери бонус

RePack

jed

!!Акция!!

Alien_Rage

RePack

fifa19

RePack

Assassins Creed: Odyssey

RePack

NEED FOR SPEED™ PAYBACK

4 сезон

9 сезон

Бесстыжие 9 сезон

Все сериалы

все сериалы на PB.wtf

RePack

FAR CRY 5
  

Прозрение / Los ojos de Julia (Гильем Моралес) [2010 г., ужасы, триллер, драма, BDRip 720p] pb.wtf

Прозрение через торрент pb.wtf

Качают: 1 [ 0 KB/s ]
Размер: 5.73 GB | Добавлен: 9 лет 6 мес. назад | Торрент скачан:29 раз
Скачать  

27-03-2011 20:58 Прозрение Скачать торрент  

Прозрение / Los ojos de Julia

Год выпуска: 2010
Страна: Испания
Жанр: ужасы, триллер, драма
Продолжительность: 01:57:15
Перевод: Профессиональный (двухголосый закадровый)

Режиссер: Гильем Моралес
Продюссер: Мерседес Гамеро, Хоакин Падро, Мар Тарганова, ...
Сценарий: Гильем Моралес, Ориол Паоло
В ролях: Белен Руэда, Льюис Омар, Джоан Дальмау, Борис Руис, Клара Сегура, Андреа Эрмоса, Хулия Гутьеррес Каба

Описание: Бывший астроном Джулия, страдающая от прогрессирующей болезни глаз, обнаруживает свою сестру-близнеца Сару задохнувшейся в петле в подвале ее старого дома. Официальная версия полиции — самоубийство; причина трагедии — полная потеря зрения в результате того же заболевания.
Однако Джулия инстинктивно чувствует, что Сару безжалостно и расчетливо убили. Несмотря на безразличие служителей закона и настороженность ее спутника жизни Исаака, она начинает собственное расследование. Найти убийцу ей нужно до того, как в ее глазах окончательно померкнет свет.


Качество: BDRip 720p
Формат: MKV
Видео кодек: Другой MPEG4
Аудио кодек: AC3
Видео: MPEG-4 AVC, 4897 Кбит/с, 1280x544
Аудио №1: Русский ---[AC3, 6 ch, 448 Кбит/с]---
Аудио №2: Испанский---[DTS, 6 ch, 1510 Кбит/с]---


General
Unique ID : 173092409036547213955620014695069456566 (0x823862A7ABDA58E9934B1AE0174F18B6)
Complete name : E:\Filmi\Prozrenie.2010.x264.BDRip.(720p).mkv
Format : Matroska
File size : 5.73 GiB
Duration : 1h 57mn
Overall bit rate : 6 994 Kbps
Encoded date : UTC 2011-03-25 16:05:38
Writing application : mkvmerge v3.2.0 ('Beginnings') built on Feb 17 2010 12:36:13
Writing library : libebml v0.7.9 + libmatroska v0.8.1

Video
ID : 1
Format : AVC
Format/Info : Advanced Video Codec
Format profile : High@L4.1
Format settings, CABAC : Yes
Format settings, ReFrames : 4 frames
Codec ID : V_MPEG4/ISO/AVC
Duration : 1h 57mn
Bit rate : 4 897 Kbps
Nominal bit rate : 5 240 Kbps
Width : 1 280 pixels
Height : 544 pixels
Display aspect ratio : 2.35:1
Frame rate : 23.976 fps
Color space : YUV
Chroma subsampling : 4:2:0
Bit depth : 8 bits
Scan type : Progressive
Bits/(Pixel*Frame) : 0.293
Stream size : 4.01 GiB (70%)
Writing library : x264 core 94 r1583 7608d73
Encoding settings : cabac=1 / ref=2 / deblock=0:0:0 / analyse=0x3:0x113 / me=hex / subme=7 / psy=1 / psy_rd=0.50:0.50 / mixed_ref=1 / me_range=16 / chroma_me=1 / trellis=1 / 8x8dct=1 / cqm=0 / deadzone=21,11 / fast_pskip=0 / chroma_qp_offset=-4 / threads=6 / sliced_threads=0 / nr=0 / decimate=1 / interlaced=0 / constrained_intra=0 / bframes=4 / b_pyramid=2 / b_adapt=1 / b_bias=0 / direct=3 / weightb=1 / weightp=2 / keyint=250 / keyint_min=25 / scenecut=40 / intra_refresh=0 / rc_lookahead=40 / rc=2pass / mbtree=1 / bitrate=5240 / ratetol=1.0 / qcomp=0.60 / qpmin=10 / qpmax=51 / qpstep=4 / cplxblur=20.0 / qblur=0.5 / ip_ratio=1.25 / aq=2:1.00
Language : Spanish

Audio #1
ID : 2
Format : AC-3
Format/Info : Audio Coding 3
Mode extension : CM (complete main)
Codec ID : A_AC3
Duration : 1h 57mn
Bit rate mode : Constant
Bit rate : 448 Kbps
Channel(s) : 6 channels
Channel positions : Front: L C R, Side: L R, LFE
Sampling rate : 48.0 KHz
Bit depth : 16 bits
Compression mode : Lossy
Delay relative to video : 1mn 17s
Stream size : 376 MiB (6%)
Title : DVO
Language : Russian

Audio #2
ID : 3
Format : DTS
Format/Info : Digital Theater Systems
Codec ID : A_DTS
Duration : 1h 57mn
Bit rate mode : Constant
Bit rate : 1 510 Kbps
Channel(s) : 6 channels
Channel positions : Front: L C R, Side: L R, LFE
Sampling rate : 48.0 KHz
Bit depth : 24 bits
Compression mode : Lossy
Stream size : 1.24 GiB (22%)
Language : Spanish

Text #1
ID : 4
Format : UTF-8
Codec ID : S_TEXT/UTF8
Codec ID/Info : UTF-8 Plain Text
Language : English

Text #2
ID : 5
Format : UTF-8
Codec ID : S_TEXT/UTF8
Codec ID/Info : UTF-8 Plain Text
Language : Spanish[/code]


скриншот  скриншот  скриншот  

© Оформление by ---DenisNN---pb.wtf



Скачать Прозрение через торрент http://s49.radikal.ru/i125/1103/f8/3d6d80301528.jpg Скачать фильм Прозрение через торрент бесплантно в хорошем качестве Описание: Бывший астроном Джулия, страдающая от прогрессирующей болезни глаз, обнаруживает свою сестру-близнеца Сару задохнувшейся в петле ... 4.5 10 8
Info! Золотая раздача, скачанное не засчитывается.
Торрент: Зарегистрирован [2011-03-27 20:58] · скачан: 29 раз
Статус: √ проверено
Размер: 5.73 GB
Как cкачать? Как скачать Прозрение через торрент | qTorrent

% Раздел Тема Автор DL S | L
Фильмы 2010 [ 2.05 GB ] Прозрение / Los ojos de Julia/ Julia's eyes [2010 HDRip] coc900 Скачать
1 | 0
Фильмы [HD 720p, 1080p] (Хороший звук DUB, MVO) [ 8.49 GB ] Прозрение / Julia's Eyes / Los ojos de Julia [2010 Испания BDRip 720p] Shmel Скачать
1 | 1
Фильмы 2010 [ 700 MB ] Прозрение / Los ojos de Julia [2010 DVDRip] Anonymous Скачать
1 | 0

28-11-2019 20:33  

Отключить всю рекламу на сайте

27-03-2011 21:17 Прозрение Скачать торрент  

чего не качает?pb.wtf



27-03-2011 21:31 Прозрение Скачать торрент  

фуфло потому чтоpb.wtf



28-03-2011 05:59 Прозрение Скачать торрент  

так се фильм,на любителя шляпошных картин)))))3 дня смотрел,чудом досмотрел,чудом)))pb.wtf



28-03-2011 08:03 Прозрение Скачать торрент  

От скринов ссиканул.pb.wtf



    Дорогой пользователь! Огромная просьба, поблагодарите релизера, оцените раздачу и оставьте свои комментарий, если Вы скачали Прозрение через торрент бесплатно! Внесите свою лепту в развитие PiratBit!
    Комментировать посты могут только пользователи прошедшие не сложную регистрацию
    Показать сообщения:    

    Прозрение через торрент
    Скачать бесплатно Прозрение
    Прозрение скачать торрент
    Прозрение смотреть онлайн
    Cкачать фильм Прозрение бесплатно
    Прозрение скачать торрент в хорошем качестве
    Прозрение смотреть онлайн бесплатно в хорошем качестве


    Вы не можете начинать темы
    Вы не можете отвечать на сообщения
    Вы не можете редактировать свои сообщения
    Вы не можете удалять свои сообщения
    Вы не можете голосовать в опросах
    Вы не можете прикреплять файлы к сообщениям
    Вы можете скачивать файлы