1 сезон

3 сезон

iTunes

1

Line

MVO

iTunes

13

1 сезон

RePack

30

Deluxe

pack

Лицензия

ВАЖНО

ИГРА 18+

pack

RePack

MK11

RePack

jed

RePack

fifa19

RePack

RDR2

RePack

NEED FOR SPEED™ PAYBACK

4 сезон

9 сезон

Бесстыжие 9 сезон

Все сериалы

все сериалы на PB.wtf

RePack

FAR CRY 5

Anonymous, доброе утро, мы катастрофически не успеваем собрать деньги на оплату серверов, помогите нам пожалуйста 5,10,15р., для нас важна любая помощь . В качестве благодарности мы отключим Вам всю рекламу на сайте (укажите свой ник в строку Ваше имя)!

×
  
Magnet ссылка

Жизнь, как она есть / Life as We Know It (Грег Берланти / Greg Berlanti) [2010, США, драма, комедия, DVD9] R5 «CP-Digital» pb.wtf

Жизнь, как она есть через торрент pb.wtf

Размер: 6.04 GB | Добавлен: 10 лет назад | Торрент скачан:22 раза
Скачать  

28-03-2011 23:24 Жизнь, как она есть Скачать торрент  


Жизнь, как она есть / Life as We Know It
«Семья - инструкция по эксплуатации»
Страна: США
Студия: Gold Circle Films, Josephson Entertainment, Village Roadshow Pictures
Жанр: драма, комедия
Год выпуска: 2010
Мировая премьера: 2 октября 2010
Российская премьера: 14 октября 2010, «Каро-Премьер»
Дата выхода DVD: 31 марта 2011, «CP-Digital»
Продолжительность: 01:49:55
Перевод: Профессиональный (дублированный) [Лицензия]
Cубтитры: русские, английские
Оригинальная аудиодорожка: английский
Режиссер: Грег Берланти / Greg Berlanti
В ролях: Кэтрин Хайгл, Джош Дюамель, Джош Лукас, Алексис Кладжетт, Бринн Кладжетт, Брук Клагетт, Хэйес МакАртур, Кристина Хендрикс, Сара Барнс, Джессика Ст. Клэр
Описание: Холли Беренсон — владелец кондитерской, Эрик Мессер — многообещающий директор спортивной сети. После рокового первого свидания единственное, что у них теперь общее, — это ненависть друг к другу и любовь к крестнице Софи. Но когда внезапно они становятся единственными, кто остается у Софи, Холли и Мессер вынуждены забыть о собственных несовпадениях. В попытке состыковать карьерные амбиции и несхожие планы досуга им всё-таки придется найти хоть что-то их объединяющее, ведь отныне им предстоит поселиться под одной крышей.
Бонусы: Фильм о фильме

Качество: DVD9 R5
Формат: DVD-Video
Видео кодек: MPEG2
Аудио кодек: AC3
Видео: PAL 16:9 (720x576(0.583)) MPEG Video,25,000 кадр/сек, 6044 Кбит/сек
Аудио: Russian / English / Ukrainian (Dolby AC3, 6 ch) 384 Кбит/сек, 48,0 КГц



Title:
Size: 6.04 Gb ( 6 329 356 KBytes ) - DVD-9
Enabled regions: 1, 2, 3, 4, 5, 6, 7, 8

VTS_01 :
Play Length: 01:49:55+00:14:18
Video: PAL 16:9 (720x576) VBR, Auto Letterboxed
Audio:
English (Dolby AC3, 6 ch)
Russian (Dolby AC3, 6 ch)
Ukrainian (Dolby AC3, 6 ch)
English (Dolby AC3, 2 ch)
Subtitles:
English
Russian
Russian

VTS_02 :
Play Length: 00:00:10
Video: PAL 16:9 (720x576) VBR, Auto Letterboxed
Audio:
Not specified (Dolby AC3, 6 ch)
Subtitles:
Not specified

Menu Video:
PAL 16:9 (720x576) VBR
Auto Pan&Scan
Menu Subtitles:
Not specified
Menu Language Unit :
Root Menu
Общее
Полное имя : E:\Новинки 2011\Zhizn.kak.ona.est.2010.DVD9\VIDEO_TS\VTS_01_1.VOB
Формат : MPEG-PS
Размер файла : 1024 Мбайт
Продолжительность : 19 м.
Общий поток : 7342 Кбит/сек

Видео
Идентификатор : 224 (0xE0)
Формат : MPEG Video
Версия формата : Version 2
Профиль формата : Main@Main
Параметр BVOP формата : Да
Параметр матрицы формата : По умолчанию
Продолжительность : 19 м.
Вид битрейта : Переменный
Битрейт : 6044 Кбит/сек
Ширина : 720 пикс.
Высота : 576 пикс.
Соотношение сторон : 16:9
Частота кадров : 25,000 кадр/сек
Стандарт вещания : PAL
Цветовое пространство : YUV
Подвыборка цветности : 4:2:0
Битовая глубина : 8 бит
Тип развёртки : Прогрессивная
Порядок развёртки : Верхнее поле первое
Метод сжатия : С потерями
Бит/(Пиксели*Кадры) : 0.583
Размер потока : 843 Мбайт (82%)

Аудио #1
Идентификатор : 189 (0xBD)-128 (0x80)
Формат : AC-3
Формат/Информация : Audio Coding 3
Расширение режима : CM (complete main)
Режим смешивания : DVD-Video
Продолжительность : 19 м.
Вид битрейта : Постоянный
Битрейт : 384 Кбит/сек
Канал(ы) : 6 канала(ов)
Расположение каналов : Front: L C R, Side: L R, LFE
Частота : 48,0 КГц
Битовая глубина : 16 бит
Метод сжатия : С потерями
Размер потока : 53,5 Мбайт (5%)

Аудио #2
Идентификатор : 189 (0xBD)-129 (0x81)
Формат : AC-3
Формат/Информация : Audio Coding 3
Расширение режима : CM (complete main)
Режим смешивания : DVD-Video
Продолжительность : 19 м.
Вид битрейта : Постоянный
Битрейт : 384 Кбит/сек
Канал(ы) : 6 канала(ов)
Расположение каналов : Front: L C R, Side: L R, LFE
Частота : 48,0 КГц
Битовая глубина : 16 бит
Метод сжатия : С потерями
Задержка видео : -74 мс.
Размер потока : 53,6 Мбайт (5%)

Аудио #3
Идентификатор : 189 (0xBD)-130 (0x82)
Формат : AC-3
Формат/Информация : Audio Coding 3
Расширение режима : CM (complete main)
Режим смешивания : DVD-Video
Продолжительность : 19 м.
Вид битрейта : Постоянный
Битрейт : 384 Кбит/сек
Канал(ы) : 6 канала(ов)
Расположение каналов : Front: L C R, Side: L R, LFE
Частота : 48,0 КГц
Битовая глубина : 16 бит
Метод сжатия : С потерями
Задержка видео : -74 мс.
Размер потока : 53,6 Мбайт (5%)










pb.wtf



Скачать Жизнь, как она есть через торрент http://i18.fastpic.ru/big/2011/0329/20/e5b5bb4545e15ff0e4eae8e52c09ae20.jpg Скачать фильм Жизнь, как она есть через торрент бесплантно в хорошем качестве Описание: Холли Беренсон — владелец кондитерской, Эрик Мессер — многообещающий директор спортивной сети. После рокового первого свидания ... 5 10 2
Info! Золотая раздача, скачанное не засчитывается.
Торрент: Зарегистрирован [2011-03-28 23:24] · скачан: 22 раз
Статус: √ проверено
Размер: 6.04 GB
Как cкачать? Как скачать Жизнь, как она есть через торрент | UTorrent

28-11-2019 20:33  

Отключить всю рекламу на сайте

    Дорогой пользователь! Огромная просьба, поблагодарите релизера, оцените раздачу и оставьте свои комментарий, если Вы скачали Жизнь, как она есть через торрент бесплатно! Внесите свою лепту в развитие PiratBit!
    Комментировать посты могут только пользователи прошедшие не сложную регистрацию
    Показать сообщения:    

    Жизнь, как она есть через торрент
    Скачать бесплатно Жизнь, как она есть
    Жизнь, как она есть скачать торрент
    Жизнь, как она есть смотреть онлайн
    Cкачать фильм Жизнь, как она есть бесплатно
    Жизнь, как она есть скачать торрент в хорошем качестве
    Жизнь, как она есть смотреть онлайн бесплатно в хорошем качестве


    Вы не можете начинать темы
    Вы не можете отвечать на сообщения
    Вы не можете редактировать свои сообщения
    Вы не можете удалять свои сообщения
    Вы не можете голосовать в опросах
    Вы не можете прикреплять файлы к сообщениям
    Вы можете скачивать файлы