1 сезон

3 сезон

iTunes

1

Line

MVO

iTunes

13

1 сезон

RePack

30

Deluxe

pack

Лицензия

ВАЖНО

ИГРА 18+

pack

RePack

MK11

RePack

jed

RePack

fifa19

RePack

RDR2

RePack

NEED FOR SPEED™ PAYBACK

4 сезон

9 сезон

Бесстыжие 9 сезон

Все сериалы

все сериалы на PB.wtf

RePack

FAR CRY 5

Anonymous, доброй ночи, мы катастрофически не успеваем собрать деньги на оплату серверов, помогите нам пожалуйста 5,10,15р., для нас важна любая помощь . В качестве благодарности мы отключим Вам всю рекламу на сайте (укажите свой ник в строку Ваше имя)!

×
  
Magnet ссылка

Чудаки 3D / Jackass 3D (Джефф Треймейн / Jeff Tremaine) [2010, США, Румыния, документальный, комедия, DVD9] R5 «Юниверсал Пикчерс Рус» pb.wtf

Чудаки 3D через торрент pb.wtf

Размер: 6.77 GB | Добавлен: 10 лет назад | Торрент скачан:51 раз
Скачать  

30-03-2011 15:13 Чудаки 3D Скачать торрент  


Чудаки 3 / Jackass 3
Две версии: Версия для кинотеатров и Режиссёрская версия
Страна: США, Румыния
Студия: Dickhouse Productions, MTV Films
Жанр: документальный, комедия
Год выпуска: 2010
Мировая премьера: 13 октября 2010
Российская премьера: 2 декабря 2010, «Централ Партнершип» 3D
Дата выхода DVD: 31 марта 2011, «Юниверсал Пикчерс Рус»
Дата выхода Blu-Ray: 2 июня 2011, «Юниверсал Пикчерс Рус»
Продолжительность: 03:05:50
Перевод: Профессиональный (дублированный) [Лицензия]
Cубтитры: русские, английские, украинские
Оригинальная аудиодорожка: английский
Режиссер: Джефф Треймейн / Jeff Tremaine
В ролях: Джонни Ноксвилл, Бэм Марджера, Стив-О, Крис Понтиус, Джейсон Акуна, Райан Данн, Престон Лэси, Эрен МакГехи, Дэйв Инглэнд, Джон Тейлор
Описание: Скандальная, саркастическая, грубая и абсолютно сумасбродная команда Джонни Ноксвила опять готова шокировать, смешить и срывать крышу, и в этот раз они удивят еще больше. Теперь каждый может стать почти соучастником событий, поскольку наблюдать за выходками чудаков можно будет в формате 3D. Фильм состоит из ряда экстремальных трюков, нерядовых шуток и безумных экспериментов, — все это испытает на собственной шкуре эта безумная компания. Никогда не знаешь — плакать или смеяться от их выходок, ведь они демонстрируют то, что каждый тайком хотел сделать, но боялся попробовать.
Бонусы: Сюжет о том,как создавался фильм; сцены,не вошедшие в кадр; удалённые сцены; рекламный ролик

Релиз группы:
Качество: DVD9 R5
Формат: DVD-Video
Видео кодек: MPEG2
Аудио кодек: AC3
Видео: PAL 16:9 (720x576(0.474)) MPEG Video,25,000 кадр/сек, 4918 Кбит/сек
Аудио: English / Russian / Ukrainian (Dolby AC3, 6 ch) 448 Кбит/сек, 48,0 КГц



Title: F
Size: 6.77 Gb ( 7 097 342 KBytes ) - DVD-9
Enabled regions: 1, 2, 3, 4, 5, 6, 7, 8

VTS_01 :
Play Length:
Video: NTSC 16:9 (720x480) VBR, Auto Letterboxed

VTS_02 :
Play Length:
Video: NTSC 16:9 (720x480) VBR, Auto Letterboxed

VTS_03 :
Play Length: 00:27:30
Video: PAL 16:9 (720x576) VBR, Auto Letterboxed
Audio:
English (Dolby AC3, 2 ch)
Subtitles:
English
Russian
Ukrainian

VTS_04 :
Play Length:
Video: NTSC 16:9 (720x480) VBR, Auto Letterboxed

VTS_05 :
Play Length:
Video: NTSC 16:9 (720x480) VBR, Auto Letterboxed

VTS_06 :
Play Length: 01:30:10+01:35:40
Video: PAL 16:9 (720x576) VBR, Auto Letterboxed
Audio:
English (Dolby AC3, 6 ch)
Russian (Dolby AC3, 6 ch)
Ukrainian (Dolby AC3, 6 ch)
Subtitles:
English
Russian
Ukrainian

VTS_07 :
Play Length:
Video: NTSC 16:9 (720x480) VBR, Auto Letterboxed

VTS_08 :
Play Length:
Video: NTSC 16:9 (720x480) VBR, Auto Letterboxed

VTS_09 :
Play Length: 00:05:47+00:03:13+00:01:47+00:01:26
Video: PAL 16:9 (720x576) VBR, Auto Letterboxed
Audio:
English (Dolby AC3, 2 ch)
Subtitles:
English
Russian
Ukrainian

VTS_10 :
Play Length:
Video: NTSC 16:9 (720x480) VBR, Auto Letterboxed

VTS_11 :
Play Length:
Video: NTSC 16:9 (720x480) VBR, Auto Letterboxed

VTS_12 :
Play Length:
Video: NTSC 16:9 (720x480) VBR, Auto Letterboxed

VTS_13 :
Play Length:
Video: NTSC 16:9 (720x480) VBR, Auto Letterboxed

VTS_14 :
Play Length: 00:01:24
Video: PAL 16:9 (720x576) VBR, Auto Letterboxed
Audio:
English (Dolby AC3, 6 ch)

VTS_15 :
Play Length: 00:00:15
Video: PAL 16:9 (720x576) VBR, Auto Letterboxed
Audio:
Not specified (Dolby AC3, 2 ch)

VTS_16 :
Play Length:
Video: NTSC 16:9 (720x480) VBR, Auto Letterboxed

VTS_17 :
Play Length:
Video: NTSC 16:9 (720x480) VBR, Auto Letterboxed

VTS_18 :
Play Length:
Video: NTSC 16:9 (720x480) VBR, Auto Letterboxed

VTS_19 :
Play Length:
Video: NTSC 16:9 (720x480) VBR, Auto Letterboxed

VTS_20 :
Play Length: 00:00:05
Video: PAL 16:9 (720x576) VBR, Auto Pan&Scan
Audio:
Not specified (Dolby AC3, 2 ch)

VTS_21 :
Play Length:
Video: NTSC 16:9 (720x480) VBR, Auto Letterboxed

VTS_22 :
Play Length:
Video: NTSC 16:9 (720x480) VBR, Auto Letterboxed

VTS_23 :
Play Length: 00:00:05
Video: PAL 16:9 (720x576) VBR, Auto Pan&Scan
Audio:
Not specified (Dolby AC3, 2 ch)

VTS_24 :
Play Length: 00:00:24
Video: PAL 16:9 (720x576) VBR, Auto Pan&Scan
Audio:
Not specified (Dolby AC3, 2 ch)

VTS_25 :
Play Length:
Video: PAL 16:9 (720x576) VBR, Auto Letterboxed
Audio:
English (Dolby AC3, 6 ch)
Russian (Dolby AC3, 6 ch)
Ukrainian (Dolby AC3, 6 ch)
Subtitles:
English
Russian
Ukrainian
Общее
Полное имя : E:\Новинки 2011\Chudaky.3D.2010.DVD9\VIDEO_TS\VTS_06_1.VOB
Формат : MPEG-PS
Размер файла : 1024 Мбайт
Продолжительность : 22 м.
Общий поток : 6390 Кбит/сек

Видео
Идентификатор : 224 (0xE0)
Формат : MPEG Video
Версия формата : Version 2
Профиль формата : Main@Main
Параметр BVOP формата : Да
Параметр матрицы формата : По умолчанию
Продолжительность : 22 м.
Вид битрейта : Переменный
Битрейт : 4918 Кбит/сек
Номинальный битрейт : 9800 Кбит/сек
Ширина : 720 пикс.
Высота : 576 пикс.
Соотношение сторон : 16:9
Частота кадров : 25,000 кадр/сек
Стандарт вещания : PAL
Цветовое пространство : YUV
Подвыборка цветности : 4:2:0
Битовая глубина : 8 бит
Тип развёртки : Прогрессивная
Порядок развёртки : Верхнее поле первое
Метод сжатия : С потерями
Бит/(Пиксели*Кадры) : 0.474
Размер потока : 788 Мбайт (77%)

Аудио #1
Идентификатор : 189 (0xBD)-128 (0x80)
Формат : AC-3
Формат/Информация : Audio Coding 3
Расширение режима : CM (complete main)
Режим смешивания : DVD-Video
Продолжительность : 22 м.
Вид битрейта : Постоянный
Битрейт : 448 Кбит/сек
Канал(ы) : 6 канала(ов)
Расположение каналов : Front: L C R, Side: L R, LFE
Частота : 48,0 КГц
Битовая глубина : 16 бит
Метод сжатия : С потерями
Размер потока : 71,8 Мбайт (7%)

Аудио #2
Идентификатор : 189 (0xBD)-129 (0x81)
Формат : AC-3
Формат/Информация : Audio Coding 3
Расширение режима : CM (complete main)
Режим смешивания : DVD-Video
Продолжительность : 22 м.
Вид битрейта : Постоянный
Битрейт : 448 Кбит/сек
Канал(ы) : 6 канала(ов)
Расположение каналов : Front: L C R, Side: L R, LFE
Частота : 48,0 КГц
Битовая глубина : 16 бит
Метод сжатия : С потерями
Размер потока : 71,8 Мбайт (7%)

Аудио #3
Идентификатор : 189 (0xBD)-130 (0x82)
Формат : AC-3
Формат/Информация : Audio Coding 3
Расширение режима : CM (complete main)
Режим смешивания : DVD-Video
Продолжительность : 22 м.
Вид битрейта : Постоянный
Битрейт : 448 Кбит/сек
Канал(ы) : 6 канала(ов)
Расположение каналов : Front: L C R, Side: L R, LFE
Частота : 48,0 КГц
Битовая глубина : 16 бит
Метод сжатия : С потерями
Размер потока : 71,8 Мбайт (7%)




pb.wtf



Скачать Чудаки 3D через торрент http://i19.fastpic.ru/big/2011/0330/d9/f29f0c521c5dca7a602e58acc32540d9.jpg Скачать фильм Чудаки 3D через торрент бесплантно в хорошем качестве Описание: Скандальная, саркастическая, грубая и абсолютно сумасбродная команда Джонни Ноксвила опять готова шокировать, смешить и срывать ... 4.9 10 12
Info! Золотая раздача, скачанное не засчитывается.
Торрент: Зарегистрирован [2011-03-30 15:13] · скачан: 51 раз
Статус: √ проверено
Размер: 6.77 GB
Как cкачать? Как скачать Чудаки 3D через торрент | UTorrent

28-11-2019 20:33  

Отключить всю рекламу на сайте

30-03-2011 16:05 Чудаки 3D Скачать торрент  

отстойpb.wtf



30-03-2011 16:14 Чудаки 3D Скачать торрент  

тут звук норм ?pb.wtf



30-03-2011 16:23 Чудаки 3D Скачать торрент  

BAM_Margera писал(а):

тут звук норм ?

Это лицензия,звук в порядке.pb.wtf



30-03-2011 17:57 Чудаки 3D Скачать торрент  

30-Мар-2011 18:05 (спустя 51 минута)


"отстой"

это ты отстой посмотрел бы для началаpb.wtf



    Дорогой пользователь! Огромная просьба, поблагодарите релизера, оцените раздачу и оставьте свои комментарий, если Вы скачали Чудаки 3D через торрент бесплатно! Внесите свою лепту в развитие PiratBit!
    Комментировать посты могут только пользователи прошедшие не сложную регистрацию
    Показать сообщения:    

    Чудаки 3D через торрент
    Скачать бесплатно Чудаки 3D
    Чудаки 3D скачать торрент
    Чудаки 3D смотреть онлайн
    Cкачать фильм Чудаки 3D бесплатно
    Чудаки 3D скачать торрент в хорошем качестве
    Чудаки 3D смотреть онлайн бесплатно в хорошем качестве


    Вы не можете начинать темы
    Вы не можете отвечать на сообщения
    Вы не можете редактировать свои сообщения
    Вы не можете удалять свои сообщения
    Вы не можете голосовать в опросах
    Вы не можете прикреплять файлы к сообщениям
    Вы можете скачивать файлы