Ссылка на приватное зеркало всего за 1$. Внимание количество ограничено!!!

iTunes

iTunes

iTunes

1

iTunes

iTunes

iTunes

iTunes

iTunes

30
pack

$ от Little Big

ВАЖНО

!!Акция!!

Alien_RageХит недели

RePack

Resident Evil 21

ИГРА 18+

pack

RePack

jed

!!Акция!!

Alien_Rage

RePack

fifa19

RePack

Assassins Creed: Odyssey

RePack

NEED FOR SPEED™ PAYBACK

4 сезон

9 сезон

Бесстыжие 9 сезон

Все сериалы

все сериалы на PB.wtf

RePack

FAR CRY 5
  

Робокоп 3 / RoboCop 3 (Фред Деккер) [1993 г., Фантастика, Боевик, Триллер, Драма, Криминал, HDTVRip] pb.wtf

Робокоп 3 через торрент pb.wtf

Размер: 4.37 GB | Добавлен: 6 лет 8 мес. назад | Торрент скачан:48 раз
Скачать  

31-03-2011 15:31 Робокоп 3 Скачать торрент  

Робокоп 3 / RoboCop 3

Год выпуска: 1993
Страна: США
Жанр: Фантастика, Боевик, Триллер, Драма, Криминал
Продолжительность: 104 мин.
Перевод: Профессиональный (многоголосый, закадровый)

Режиссер: Фред Деккер
Продюссер: Джейн Бартелм, Патрик Краули, Эндрю Дж. Ла Марка
Сценарий: Эдвард Ноймайер, Майкл Майнер, Фрэнк Миллер

Бюджет: $22 000 000

PG-13
-Детям до 13 лет просмотр не желателен
Мировой рейтинг IMDB 3.50 (14 336)


В ролях: Роберт Джон Бёрк, Марио Мачадо, Реми Райан, Джоди Лонг, Джон Пози, Рип Торн, Мако, Джон Кастл, С.Д. Немет, Эдит Ай

Описание: Могущественная корпорация, создавшая знаменитого Робота-полицейского, разрабатывает грандиозный проект по переустройству Детройта. Но его осуществлению препятствуют жители бедных кварталов, для которых не нашлось места в идеальном городе будущего.Бесстрашный Робокоп оказывается между двух враждующих лагерей. Как собственность корпорации, он обязан подчиниться несправедливому приказу. Но как человек, Мёрфи должен встать на защиту повстанцев. Разрываясь между жестоким долгом и голосом сердца, Робот-полицейский попадает в самый эпицентр противостояния. Настало время сделать решающий выбор…

Качество: HDTVRip
Формат: MKV
Видео кодек: AVC
Аудио кодек: AC3
Видео: MPEG4 Video (H264) 1280x720 23.98fps 5 967 Kbps
Аудио: Dolby AC3 48000Hz 6ch 384 Kbps
Релиз от: by terraner

скриншот   скриншот   скриншот   скриншот  
General
Unique ID : 231485004637233219041362491862557676905 (0xAE2663E4D9FB06A7A3F61458C09C5569)
Complete name : D:VideoRoboCop 3.mkv
Format : Matroska
Format version : Version 1
File size : 4.37 GiB
Duration : 1h 44mn
Overall bit rate : 5 967 Kbps
Encoded date : UTC 2008-12-22 21:44:04
Writing application : mkvmerge v2.1.0 ('Another Place To Fall') built on Aug 19 2007 13:40:07
Writing library : libebml v0.7.7 + libmatroska v0.8.1

Video
ID : 1
Format : AVC
Format/Info : Advanced Video Codec
Format profile : High@L4.1
Format settings, CABAC : Yes
Format settings, ReFrames : 4 frames
Codec ID : V_MPEG4/ISO/AVC
Duration : 1h 44mn
Bit rate : 5 582 Kbps
Width : 1 280 pixels
Height : 720 pixels
Display aspect ratio : 16:9
Frame rate : 23.976 fps
Color space : YUV
Chroma subsampling : 4:2:0
Bit depth : 8 bits
Scan type : Progressive
Bits/(Pixel*Frame) : 0.253
Stream size : 4.00 GiB (92%)
Title : H.264
Writing library : x264 core 65 r1028M 83baa7f
Encoding settings : cabac=1 / ref=4 / deblock=1:-2:-1 / analyse=0x3:0x113 / me=umh / subme=8 / psy_rd=1.0:0.0 / mixed_ref=1 / me_range=24 / chroma_me=1 / trellis=2 / 8x8dct=1 / cqm=0 / deadzone=21,11 / chroma_qp_offset=-2 / threads=6 / nr=0 / decimate=1 / mbaff=0 / bframes=3 / b_pyramid=0 / b_adapt=1 / b_bias=0 / direct=3 / wpredb=1 / keyint=250 / keyint_min=25 / scenecut=40(pre) / rc=2pass / bitrate=5582 / ratetol=1.0 / qcomp=0.60 / qpmin=10 / qpmax=51 / qpstep=4 / cplxblur=20.0 / qblur=0.5 / vbv_maxrate=50000 / vbv_bufsize=50000 / ip_ratio=1.40 / pb_ratio=1.30 / aq=1:1.00
Language : English
Default : Yes
Forced : No

Audio
ID : 2
Format : AC-3
Format/Info : Audio Coding 3
Mode extension : CM (complete main)
Format settings, Endianness : Big
Codec ID : A_AC3
Duration : 1h 44mn
Bit rate mode : Constant
Bit rate : 384 Kbps
Channel(s) : 6 channels
Channel positions : Front: L C R, Side: L R, LFE
Sampling rate : 48.0 KHz
Bit depth : 16 bits
Compression mode : Lossy
Delay relative to video : 32ms
Stream size : 288 MiB (6%)
Language : Russian
Default : Yes
Forced : No
* На сайте IMDb получил 3,4 балла из 10.
* Питер Уэллер, исполнитель главной роли в первых двух фильмах, не самым лучшим образом высказывался о Робокопе: «Я никогда не видел „Робота-полицейского 3“ и не собираюсь этого делать в будущем».
*Питер Уэллер отказался вновь играть Робота-полицейского из-за съемок в картине Дэвида Кроненберга «Обед нагишом» (1991).
*Фильм был снят в 1991 году, но выпустили его только 5 ноября 1993 года. Причина такой задержки заключается в банкротстве кинокомпании «Orion», занимавшейся дистрибьюцией картины.
*Съемки проходили в Атланте, где в то время уже начинали готовиться к Олимпийским играм 1996 года. Большинство пустовавших зданий, показанных в фильме, — это дома, подлежащие сносу.
а так же RoboCoppb.wtf



Скачать Робокоп 3 через торрент http://www.kinofaza.com/image23/robokop_3.jpeg Скачать фильм Робокоп 3 через торрент бесплантно в хорошем качестве Описание: Могущественная корпорация, создавшая знаменитого Робота-полицейского, разрабатывает грандиозный проект по переустройству ... 9.9 10 7
Info! Золотая раздача, скачанное не засчитывается.
Торрент: Зарегистрирован [2013-11-07 01:12] · скачан: 48 раз
Статус: √ проверено
Размер: 4.37 GB
Как cкачать? Как скачать Робокоп 3 через торрент | qTorrent

% Раздел Тема Автор DL S | L
Фильмы [HD 720p, 1080p] (Хороший звук DUB, MVO) [ 6.63 GB ] Робокоп 3 / RoboCop 3 [1993 BDRip 1080p HEVC ()] Мичман37 Скачать
2 | 0
Фильмы [HD 720p, 1080p] (Хороший звук DUB, MVO) [ 7.76 GB ] Робокоп 3 / RoboCop 3 [1993 BDRip 1080p + Оригинал] Бумер Скачать
1 | 0


Последний раз редактировалось: terraner (2013-11-08 06:47), всего редактировалось 4 раз(а)

28-11-2019 20:33  

Отключить всю рекламу на сайте

09-04-2011 20:14 Робокоп 3 Скачать торрент  

он крутой!pb.wtf



07-11-2013 03:23 Робокоп 3 Скачать торрент  

Триллер? С каких пор робокоп - ужастик? pb.wtf



07-11-2013 04:39 Робокоп 3 Скачать торрент  

ужастиком он стал еще в двухтысячных)))))))))))))pb.wtf



07-11-2013 04:43 Робокоп 3 Скачать торрент  

зачетный бюджет 22 ляма для 93 годаpb.wtf



07-11-2013 05:48 Робокоп 3 Скачать торрент  

terraner
спс за старую добрую классику и золото в подарок всем кто хочет пересмотреть этот фильмpb.wtf



07-11-2013 07:15 Робокоп 3 Скачать торрент  

Disel2011 писал(а):

Триллер? С каких пор робокоп - ужастик?

ну брат, всё просто.
Триллер - жанр произведений литературы и кино, нацеленный вызвать у зрителя или читателя чувства тревожного ожидания, волнения или страха.
а Ужас - К фильмам ужасов относят фильмы, которые призваны напугать зрителя, вселить чувство тревоги и неопределённости, создать напряжённую атмосферу ужаса или мучительного ожидания чего-либо ужасного — так называемый эффект «саспенс» (от англ. suspense — неопределённость). взято с википедии.

чувствуешь разницу? pb.wtf



07-11-2013 07:52 Робокоп 3 Скачать торрент  

Demonessa писал(а):

terraner
спс за старую добрую классику и золото в подарок всем кто хочет пересмотреть этот фильм

Благодарю pb.wtf



07-01-2014 18:04 Робокоп 3 Скачать торрент  

Сложно сказать ,как по мне то ужастик, это чтобы шугался и думал что это реально.pb.wtf



    Дорогой пользователь! Огромная просьба, поблагодарите релизера, оцените раздачу и оставьте свои комментарий, если Вы скачали Робокоп 3 через торрент бесплатно! Внесите свою лепту в развитие PiratBit!
    Комментировать посты могут только пользователи прошедшие не сложную регистрацию
    Показать сообщения:    

    Робокоп 3 через торрент
    Скачать бесплатно Робокоп 3
    Робокоп 3 скачать торрент
    Робокоп 3 смотреть онлайн
    Cкачать фильм Робокоп 3 бесплатно
    Робокоп 3 скачать торрент в хорошем качестве
    Робокоп 3 смотреть онлайн бесплатно в хорошем качестве


    Вы не можете начинать темы
    Вы не можете отвечать на сообщения
    Вы не можете редактировать свои сообщения
    Вы не можете удалять свои сообщения
    Вы не можете голосовать в опросах
    Вы не можете прикреплять файлы к сообщениям
    Вы можете скачивать файлы