1 сезон

3 сезон

iTunes

1

iTunes

MVO

iTunes

13

1 сезон

RePack

30

Deluxe

pack

Лицензия

ВАЖНО

ИГРА 18+

pack

RePack

MK11

RePack

jed

RePack

fifa19

RePack

RDR2

RePack

NEED FOR SPEED™ PAYBACK

4 сезон

9 сезон

Бесстыжие 9 сезон

Все сериалы

все сериалы на PB.wtf

RePack

FAR CRY 5

Anonymous, добрый день, мы катастрофически не успеваем собрать деньги на оплату серверов, помогите нам пожалуйста 5,10,15р., для нас важна любая помощь . В качестве благодарности мы отключим Вам всю рекламу на сайте (укажите свой ник в строку Ваше имя)!

×
  
Magnet ссылка

Инопланетное вторжение: Битва за Лос-Анджелес / Battle: Los Angeles (Джонатан Либесман / Jonathan Liebesman) [2011, США, фантастика, боевик, триллер, DVD9] R5 «Columbia/Sonpb.wtf

Инопланетное вторжение: Битва за Лос-Анджелес через торрент pb.wtf

Размер: 5.31 GB | Добавлен: 10 лет назад | Торрент скачан:214 раз
Скачать  

01-04-2011 09:39 Инопланетное вторжение: Битва за Лос-Анджелес Скачать торрент  


Инопланетное вторжение: Битва за Лос-Анджелес / Battle: Los Angeles
Страна: США
Студия: Columbia Pictures, Original Film, Relativity Media
Жанр: фантастика, боевик, триллер
Год выпуска: 2011
Мировая премьера: 8 марта 2011
Российская премьера: 11 марта 2011, «WDSSPR»
Дата выхода DVD: 7 апреля 2011, «Columbia/Sony»
Продолжительность: 01:51:22
Перевод: Профессиональный (дублированный) [Лицензия]
Cубтитры: нет
Режиссер: Джонатан Либесман / Jonathan Liebesman
В ролях: Аарон Экхарт, Бриджет Мойнэхэн, Мишель Родригес, Майкл Пенья, Рамон Родригез, Кори Хардрикт, Джино Энтони Песи, Шаффер Смит, Джеймс Хироюки Лиао, Ноэль Фишер
Описание: Землю пытается захватить инопланетная цивилизация, истребляя все живое на своем пути. По всему миру начинается широкомасштабное сражение человечества за выживание. Отряду морских пехотинцев поручено во что бы то ни стало освободить осажденный город ангелов от таинственных и смертоносных тварей…
Бонусы: нет

Релиз группы:
Качество: DVD9 R5
Формат: DVD-Video
Видео кодек: MPEG2
Аудио кодек: AC3
Видео: PAL 16:9 (720x576(0.545)) MPEG Video,25,000 кадр/сек, 5651 Кбит/сек
Аудио: Russian / Ukrainian (Dolby AC3, 6 ch) 448 Кбит/сек, 48,0 КГц



Title: F
Size: 5.31 Gb ( 5 564 352 KBytes ) - DVD-9
Enabled regions: 1, 2, 3, 4, 5, 6, 7, 8

VTS_01 :
Play Length: 01:51:22
Video: PAL 16:9 (720x576) VBR, Auto Letterboxed
Audio:
Russian (Dolby AC3, 6 ch)
Ukrainian (Dolby AC3, 6 ch)
Subtitles:
Russian
Общее
Полное имя : E:Новинки 2011Inoplanetnoe.vtorzhenie.2011.DVD9VIDEO_TSVTS_01_1.VOB
Формат : MPEG-PS
Размер файла : 1024 Мбайт
Продолжительность : 21 м.
Общий поток : 6680 Кбит/сек

Видео
Идентификатор : 224 (0xE0)
Формат : MPEG Video
Версия формата : Version 2
Профиль формата : Main@Main
Параметр BVOP формата : Да
Параметр матрицы формата : По умолчанию
Продолжительность : 21 м.
Вид битрейта : Переменный
Битрейт : 5651 Кбит/сек
Номинальный битрейт : 9000 Кбит/сек
Ширина : 720 пикс.
Высота : 576 пикс.
Соотношение сторон : 16:9
Частота кадров : 25,000 кадр/сек
Стандарт вещания : PAL
Цветовое пространство : YUV
Подвыборка цветности : 4:2:0
Битовая глубина : 8 бит
Тип развёртки : Прогрессивная
Порядок развёртки : Верхнее поле первое
Метод сжатия : С потерями
Бит/(Пиксели*Кадры) : 0.545
Размер потока : 866 Мбайт (85%)

Аудио #1
Идентификатор : 189 (0xBD)-128 (0x80)
Формат : AC-3
Формат/Информация : Audio Coding 3
Расширение режима : CM (complete main)
Режим смешивания : DVD-Video
Продолжительность : 21 м.
Вид битрейта : Постоянный
Битрейт : 448 Кбит/сек
Канал(ы) : 6 канала(ов)
Расположение каналов : Front: L C R, Side: L R, LFE
Частота : 48,0 КГц
Битовая глубина : 16 бит
Метод сжатия : С потерями
Размер потока : 68,7 Мбайт (7%)

Аудио #2
Идентификатор : 189 (0xBD)-129 (0x81)
Формат : AC-3
Формат/Информация : Audio Coding 3
Расширение режима : CM (complete main)
Режим смешивания : DVD-Video
Продолжительность : 21 м.
Вид битрейта : Постоянный
Битрейт : 448 Кбит/сек
Канал(ы) : 6 канала(ов)
Расположение каналов : Front: L C R, Side: L R, LFE
Частота : 48,0 КГц
Битовая глубина : 16 бит
Метод сжатия : С потерями
Размер потока : 68,7 Мбайт (7%)




pb.wtf



Скачать Инопланетное вторжение: Битва за Лос-Анджелес через торрент https://pic1.kartinco.top/images/61/wrgex.jpg Скачать фильм Инопланетное вторжение: Битва за Лос-Анджелес через торрент бесплантно в хорошем качестве Описание: Землю пытается захватить инопланетная цивилизация, истребляя все живое на своем пути. По всему миру начинается широкомасштабное ... 9.7 10 3
Info! Золотая раздача, скачанное не засчитывается.
Торрент: Зарегистрирован [2011-04-01 09:39] · скачан: 214 раз
Статус: √ проверено
Размер: 5.31 GB
Как cкачать? Как скачать Инопланетное вторжение: Битва за Лос-Анджелес через торрент | UTorrent

28-11-2019 20:33  

Отключить всю рекламу на сайте

03-04-2011 11:29 Инопланетное вторжение: Битва за Лос-Анджелес Скачать торрент  

Крутатенюшка Просмотриммммpb.wtf



    Дорогой пользователь! Огромная просьба, поблагодарите релизера, оцените раздачу и оставьте свои комментарий, если Вы скачали Инопланетное вторжение: Битва за Лос-Анджелес через торрент бесплатно! Внесите свою лепту в развитие PiratBit!
    Комментировать посты могут только пользователи прошедшие не сложную регистрацию
    Показать сообщения:    

    Инопланетное вторжение: Битва за Лос-Анджелес через торрент
    Скачать бесплатно Инопланетное вторжение: Битва за Лос-Анджелес
    Инопланетное вторжение: Битва за Лос-Анджелес скачать торрент
    Инопланетное вторжение: Битва за Лос-Анджелес смотреть онлайн
    Cкачать фильм Инопланетное вторжение: Битва за Лос-Анджелес бесплатно
    Инопланетное вторжение: Битва за Лос-Анджелес скачать торрент в хорошем качестве
    Инопланетное вторжение: Битва за Лос-Анджелес смотреть онлайн бесплатно в хорошем качестве


    Вы не можете начинать темы
    Вы не можете отвечать на сообщения
    Вы не можете редактировать свои сообщения
    Вы не можете удалять свои сообщения
    Вы не можете голосовать в опросах
    Вы не можете прикреплять файлы к сообщениям
    Вы можете скачивать файлы