1 сезон

1 сезон

iTunes

1

КиноПоиск HD

Кинопоиск HD

iTunes

13

1 сезон

RePack

30

Новинка

ВАЖНО

ИГРА 18+

pack

RePack

MK11
pack

Легкие деньги

RePack

jed

RePack

fifa19

RePack

RDR2

RePack

NEED FOR SPEED™ PAYBACK

4 сезон

9 сезон

Бесстыжие 9 сезон

Все сериалы

все сериалы на PB.wtf

RePack

FAR CRY 5
  
Magnet ссылка

Антикиллер. Трилогия (Егор Кончаловский, Эльдар Салаватов) [2002-2009 г., боевик, DVDRip, лицензия] pb.wtf

Антикиллер. Трилогия через торрент pb.wtf

Размер: 4.37 GB | Добавлен: 10 лет назад | Торрент скачан:602 раза
Скачать  

01-04-2011 21:54 Антикиллер. Трилогия Скачать торрент  











Антикиллер

«Всё по справедливости...»


Год выпуска: 2002
Страна: Россия

Жанр: боевик
Продолжительность: 92 мин.

Перевод: Не требуется
Тип релиза: Лицензия

Режиссер: Егор Кончаловский
Продюссер: Юсуп Бахшиев, Владимир Кильбург, Виктор Такнов
Сценарий: Фуад Ибрагимбеков, Даниил Корецкий

Бюджет: $5 000 000

Мировой рейтинг IMDB 5.30 (847)


В ролях: Гоша Куценко, Михаил Ульянов, Сергей Шакуров, Александр Белявский, Виктор Сухоруков, Евгений Сидихин, Александр Балуев, Сергей Векслер, Михаил Ефремов, Виктория Толстоганова, Иван Бортник, Юрий Кузнецов, Вячеслав Разбегаев, Юсуп Бахшиев, Валентин Голубенко, Юрий Шерстнёв, Любовь Толкалина

Описание: Бывший сотрудник уголовного розыска майор Коренев по прозвищу Лис, освобождается из заключения. Увы, Фемида бывает слепа. Не малую роль в этом сыграл один из криминальных авторитетов этого города — Шаман. Сведения счетов с Шаманом и предавшими его коллегами не входили в планы Коренева, оказавшегося в родном городе, который захлестнула волна криминальных войн. Однако, столкнувшись с невероятным преступным беспределом, царившим в городе, и гибелью его друзей, бывший майор Коренев принимает решение навести порядок своими методами…
Качество: DVDRip

Формат: AVI
Видео кодек: XviD
Аудио кодек: AC3

Видео: 704x400 (1.76:1), 25 fps, XviD MPEG-4 ~1448 kbps avg, 0.20 bit/pixel
Аудио: 48 kHz, AC3 Dolby Digital, 3/2 (L,C,R,l,r) + LFE ch, ~384 kbps






Антикиллер 2: Антитеррор

"Что не убивает нас, делает нас силнее"


Год выпуска: 2003
Страна: Россия

Жанр: боевик
Продолжительность: 114 мин.

Перевод: Не требуется
Тип релиза: Лицензия

Режиссер: Егор Кончаловский
Продюссер: Юсуп Бахшиев, Владимир Кильбург, Сергей Лисогор
Сценарий: Даниил Корецкий, Юрий Перов, Виктор Шамиров

Мировой рейтинг IMDB 5.40 (298)


В ролях: Гоша Куценко, Сергей Шакуров, Иван Бортник, Любовь Толкалина, Вячеслав Разбегаев, Сергей Векслер, Михаил Ефремов, Любомир Лауцявичус, Алексей Серебряков, Евгений Стычкин, Алексей Булдаков, Владимир Стеклов

Описание: Россия. Начало 21-го века. Со времени событий первого «Антикиллера» прошло 10 лет. Мир изменился. Границы между странами стали практически прозрачными.И на первый план вышла прямая и явная угроза — терроризм, не имеющий национальности и угрожающий безопасности всего мира. «Крепкий орешек» Лис пытается сорвать планы террористов уничтожить многомиллионный город. Схватка будет смертельной и бескомпромиссной…
Качество: DVDRip

Формат: AVI
Видео кодек: XviD
Аудио кодек: AC3

Видео: 704x304 (2.32:1), 25 fps, XviD MPEG-4 ~1267 kbps avg, 0.24 bit/pixel
Аудио: 48 kHz, AC3 Dolby Digital, 3/2 (L,C,R,l,r) + LFE ch, ~384 kbps






Антикиллер Д.К: Любовь без памяти

Год выпуска: 2009
Страна: Россия

Жанр: боевик, детектив
Продолжительность: 91 мин.

Перевод: Не требуется
Тип релиза: Лицензия

Режиссер: Эльдар Салаватов
Продюссер: Юсуп Бахшиев, Виктор Такнов, Эрвин Илизиров
Сценарий: Даниил Корецкий, Юсуп Бахшиев, Денис Нейманд

Бюджет: $2 500 000

Мировой рейтинг IMDB 5.60 (221)


В ролях: Гоша Куценко, Вячеслав Разбегаев, Михаил Ефремов, Иван Бортник, Александр Тютин, Екатерина Климова, Александр Мякушко, Станислав Любшин, Евгений Антропов, Руслан Хабибуллов

Описание: Бывший майор милиции Коренев  по прозвищу Лис  после событий, связанных с ликвидацией банды террористов, продолжает бороться  со злом во всех  его проявлениях.На этот раз судьба находит Лиса  в лечебно-трудовом профилактории, где тот прячется  от окружающей действительности. Жена его бросила, на работе конфликты из-за  его нетрадиционных методов работы, и только  в клинике Лис чувствует себя спокойно. Но когда  в городе происходит  ряд покушений  на людей из его прошлой жизни, Лису не удается  остаться в стороне. Банкир Хондачев и его референт, молодая женщина по имени Катя, забирают Коренева из лечебно-трудового профилактория и просят помочь в  поиске людей, покушавшихся на банкира и, очевидно,  похитивших крупную сумму денег из его банка.  Лис, больше из интереса к девушке, соглашается, не представляя, во что он ввязывается. Расследование столкнет Лиса с его прошлым, о котором он хотел бы забыть, и перевернет его жизнь, подарив настоящую любовь.
Качество: DVDRip

Формат: AVI
Видео кодек: XviD
Аудио кодек: AC3

Видео: 720x304 (2.37:1), 25 fps, XviD MPEG-4 ~1816 kbps avg, 0.33 bit/pixel
Аудио: 48 kHz, AC3 Dolby Digital, 3/2 (L,C,R,l,r) + LFE ch, ~448 kbps





Код:

Общее
Полное имя                       : L:\Антикиллер (коллекция)\Antikiller.2.2003.O.DVDRip.avi
Формат                           : AVI
Формат/Информация                : Audio Video Interleave
Размер файла                     : 1,46 Гбайт
Продолжительность                : 2 ч. 5 м.
Общий поток                      : 1661 Кбит/сек
Название фильма                  : Антикиллер 2: Антитеррор
Режиссёр                         : zim2001
Программа кодирования            : VirtualDubMod 1.5.10.2 (build 2540/release)
Правообладатель                  : torrents.ru

Видео
Идентификатор                    : 0
Формат                           : MPEG-4 Visual
Профиль формата                  : Advanced Simple@L5
Параметр BVOP формата            : Да
Параметр QPel формата            : Нет
Параметр GMC формата             : Без точки перехода
Параметр матрицы формата         : Выборочная
Идентификатор кодека             : XVID
Идентификатор кодека/Подсказка   : XviD
Продолжительность                : 2 ч. 5 м.
Битрейт                          : 1267 Кбит/сек
Ширина                           : 704 пикс.
Высота                           : 304 пикс.
Соотношение сторон               : 2,35:1
Частота кадров                   : 25,000 кадр/сек
Цветовое пространство            : YUV
Подвыборка цветности             : 4:2:0
Битовая глубина                  : 8 бит
Тип развёртки                    : Прогрессивная
Метод сжатия                     : С потерями
Бит/(Пиксели*Кадры)              : 0.237
Размер потока                    : 1,11 Гбайт (76%)
Библиотека кодирования           : XviD 1.2.1 (UTC 2008-12-04)

Аудио
Идентификатор                    : 1
Формат                           : AC-3
Формат/Информация                : Audio Coding 3
Расширение режима                : CM (complete main)
Идентификатор кодека             : 2000
Продолжительность                : 2 ч. 5 м.
Вид битрейта                     : Постоянный
Битрейт                          : 384 Кбит/сек
Канал(ы)                         : 6 канала(ов)
Расположение каналов             : Front: L C R, Side: L R, LFE
Частота                          : 48,0 КГц
Битовая глубина                  : 16 бит
Метод сжатия                     : С потерями
Размер потока                    : 345 Мбайт (23%)
Выравнивание                     : Разделение по промежуткам
Продолжительность промежутка     : 40  мс. (1,00 видеокадр)
Время предзагрузки промежутка    : 500 ms

Общее
Полное имя                       : L:\Антикиллер (коллекция)\Antikiller.2002.O.DVDRip.avi
Формат                           : AVI
Формат/Информация                : Audio Video Interleave
Размер файла                     : 1,46 Гбайт
Продолжительность                : 1 ч. 53 м.
Общий поток                      : 1843 Кбит/сек
Название фильма                  : Антикиллер
Режиссёр                         :  zim2001
Программа кодирования            : VirtualDubMod 1.5.10.2 (build 2540/release)
Правообладатель                  : torrents.ru

Видео
Идентификатор                    : 0
Формат                           : MPEG-4 Visual
Профиль формата                  : Advanced Simple@L5
Параметр BVOP формата            : Да
Параметр QPel формата            : Нет
Параметр GMC формата             : Без точки перехода
Параметр матрицы формата         : Выборочная
Идентификатор кодека             : XVID
Идентификатор кодека/Подсказка   : XviD
Продолжительность                : 1 ч. 53 м.
Битрейт                          : 1449 Кбит/сек
Ширина                           : 704 пикс.
Высота                           : 400 пикс.
Соотношение сторон               : 16:9
Частота кадров                   : 25,000 кадр/сек
Цветовое пространство            : YUV
Подвыборка цветности             : 4:2:0
Битовая глубина                  : 8 бит
Тип развёртки                    : Прогрессивная
Метод сжатия                     : С потерями
Бит/(Пиксели*Кадры)              : 0.206
Размер потока                    : 1,15 Гбайт (79%)
Библиотека кодирования           : XviD 1.2.1 (UTC 2008-12-04)

Аудио
Идентификатор                    : 1
Формат                           : AC-3
Формат/Информация                : Audio Coding 3
Расширение режима                : CM (complete main)
Идентификатор кодека             : 2000
Продолжительность                : 1 ч. 53 м.
Вид битрейта                     : Постоянный
Битрейт                          : 384 Кбит/сек
Канал(ы)                         : 6 канала(ов)
Расположение каналов             : Front: L C R, Side: L R, LFE
Частота                          : 48,0 КГц
Битовая глубина                  : 16 бит
Метод сжатия                     : С потерями
Размер потока                    : 311 Мбайт (21%)
Выравнивание                     : Разделение по промежуткам
Продолжительность промежутка     : 40  мс. (1,00 видеокадр)
Время предзагрузки промежутка    : 500 ms

Общее
Полное имя                       : L:\Антикиллер (коллекция)\Antikiller.D.K.Lubov.Bez.Pamyati.2009.O.DVDRip.avi
Формат                           : AVI
Формат/Информация                : Audio Video Interleave
Размер файла                     : 1,46 Гбайт
Продолжительность                : 1 ч. 31 м.
Общий поток                      : 2275 Кбит/сек
Режиссёр                         : zim2001
Программа кодирования            : VirtualDubMod 1.5.10.2 (build 2540/release)
Правообладатель                  : rutracker.org

Видео
Идентификатор                    : 0
Формат                           : MPEG-4 Visual
Профиль формата                  : Advanced Simple@L5
Параметр BVOP формата            : Да
Параметр QPel формата            : Нет
Параметр GMC формата             : Без точки перехода
Параметр матрицы формата         : Выборочная
Идентификатор кодека             : XVID
Идентификатор кодека/Подсказка   : XviD
Продолжительность                : 1 ч. 31 м.
Битрейт                          : 1817 Кбит/сек
Ширина                           : 720 пикс.
Высота                           : 304 пикс.
Соотношение сторон               : 2,35:1
Частота кадров                   : 25,000 кадр/сек
Цветовое пространство            : YUV
Подвыборка цветности             : 4:2:0
Битовая глубина                  : 8 бит
Тип развёртки                    : Прогрессивная
Метод сжатия                     : С потерями
Бит/(Пиксели*Кадры)              : 0.332
Размер потока                    : 1,16 Гбайт (80%)
Библиотека кодирования           : XviD 1.2.1 (UTC 2008-12-04)

Аудио
Идентификатор                    : 1
Формат                           : AC-3
Формат/Информация                : Audio Coding 3
Расширение режима                : CM (complete main)
Идентификатор кодека             : 2000
Продолжительность                : 1 ч. 31 м.
Вид битрейта                     : Постоянный
Битрейт                          : 448 Кбит/сек
Канал(ы)                         : 6 канала(ов)
Расположение каналов             : Front: L C R, Side: L R, LFE
Частота                          : 48,0 КГц
Битовая глубина                  : 16 бит
Метод сжатия                     : С потерями
Размер потока                    : 293 Мбайт (20%)
Выравнивание                     : Разделение по промежуткам
Продолжительность промежутка     : 40  мс. (1,00 видеокадр)
Время предзагрузки промежутка    : 500 ms



© Оформление by Mladenecpb.wtf



Скачать Антикиллер. Трилогия через торрент http://i19.fastpic.ru/big/2011/0402/39/304a30d3ee7e1c4f8470d2342be70939.png Скачать фильм Антикиллер. Трилогия через торрент бесплантно в хорошем качестве Описание: Бывший сотрудник уголовного розыска майор Коренев по прозвищу Лис, освобождается из заключения. Увы, Фемида бывает слепа. ... 10 10 31
Info! Золотая раздача, скачанное не засчитывается.
Торрент: Зарегистрирован [2011-04-01 21:54] · скачан: 602 раз
Статус: √ проверено
Размер: 4.37 GB
Как cкачать? Как скачать Антикиллер. Трилогия через торрент | UTorrent



Последний раз редактировалось: Mladenec (2011-04-02 23:36), всего редактировалось 2 раз(а)

28-11-2019 20:33  

Отключить всю рекламу на сайте

02-04-2011 07:38 Антикиллер. Трилогия Скачать торрент  

давно хотел посмотреть всего антикиллера,спасибоpb.wtf



09-07-2011 20:44 Антикиллер. Трилогия Скачать торрент  

Скорости пожалуйста!!!!!!!!!!pb.wtf



21-07-2013 07:14 Антикиллер. Трилогия Скачать торрент  

станьте на раздачу!!!!плиз!pb.wtf



06-02-2014 15:52 Антикиллер. Трилогия Скачать торрент  

Еле качает! "Спасибо" всем нелюдям кто посмотрел и ушел с раздачи!pb.wtf



11-07-2015 12:07 Антикиллер. Трилогия Скачать торрент  

встаньте плиз кто нибудь на раздачу,чуток осталосьpb.wtf



30-12-2015 14:01 Антикиллер. Трилогия Скачать торрент  

Раздача !!!! Люди, вы где ?pb.wtf



    Дорогой пользователь! Огромная просьба, поблагодарите релизера, оцените раздачу и оставьте свои комментарий, если Вы скачали Антикиллер. Трилогия через торрент бесплатно! Внесите свою лепту в развитие PiratBit!
    Комментировать посты могут только пользователи прошедшие не сложную регистрацию
    Показать сообщения:    

    Антикиллер. Трилогия через торрент
    Скачать бесплатно Антикиллер. Трилогия
    Антикиллер. Трилогия скачать торрент
    Антикиллер. Трилогия смотреть онлайн
    Cкачать фильм Антикиллер. Трилогия бесплатно
    Антикиллер. Трилогия скачать торрент в хорошем качестве
    Антикиллер. Трилогия смотреть онлайн бесплатно в хорошем качестве


    Вы не можете начинать темы
    Вы не можете отвечать на сообщения
    Вы не можете редактировать свои сообщения
    Вы не можете удалять свои сообщения
    Вы не можете голосовать в опросах
    Вы не можете прикреплять файлы к сообщениям
    Вы можете скачивать файлы