1 сезон

3 сезон

iTunes

1

iTunes

MVO

iTunes

13

1 сезон

RePack

30

Deluxe

pack

Лицензия

ВАЖНО

ИГРА 18+

pack

RePack

MK11

RePack

jed

RePack

fifa19

RePack

RDR2

RePack

NEED FOR SPEED™ PAYBACK

4 сезон

9 сезон

Бесстыжие 9 сезон

Все сериалы

все сериалы на PB.wtf

RePack

FAR CRY 5

Anonymous, доброе утро, мы катастрофически не успеваем собрать деньги на оплату серверов, помогите нам пожалуйста 5,10,15р., для нас важна любая помощь . В качестве благодарности мы отключим Вам всю рекламу на сайте (укажите свой ник в строку Ваше имя)!

×
  
Magnet ссылка

Небесный форсаж / Kill Speed (Ким Басс / Kim Bass) [2009, США, боевик, DVD5] R5 «Топ Трейд» pb.wtf

Небесный форсаж через торрент pb.wtf

Размер: 4.21 GB | Добавлен: 10 лет назад | Торрент скачан:66 раз
Скачать  

03-04-2011 17:51 Небесный форсаж Скачать торрент  


Небесный форсаж / Kill Speed
«Higher. Faster. Harder.»
Страна: США
Студия: Bass Entertainment Pictures
Жанр: боевик
Год выпуска: 2009
Мировая премьера: 2 июля 2010
Дата выхода DVD: 7 апреля 2011, «Топ Трейд»
Продолжительность: 01:47:14
Перевод: Профессиональный (многоголосый закадровый) [Лицензия]
Cубтитры: нет
Режиссер: Ким Басс / Kim Bass
В ролях: Эндрю Кигэн, Брэндон Куинн, Наталия Чиглюти, Ник Картер, Рено Уилсон, Грег Гранберг, Кристиан Монсон, Грэхэм Норрис, Джошуа Альба, Том Арнольд
Описание: Адреналин, скорость и легкие деньги, вот что любит Джон Стрейгер. На быстрых спортивных самолетах Стрейгер с друзьями перевозит наркотики из Мексики в Калифорнию. Мастерство и безрассудство делают его неуязвимым даже для реактивных истребителей ВВС США. Но и у такого крутого парня Служба по борьбе с наркотиками отыскала уязвимое место, и теперь он работает на них…
Бонусы: нет

Релиз группы:
Качество: DVD5 R5
Формат: DVD-Video
Видео кодек: MPEG2
Аудио кодек: AC3
Видео: PAL 16:9 (720x576(0.482)) MPEG Video,25,000 кадр/сек, 4995 Кбит/сек
Аудио: Russian (Dolby AC3, 6 ch) 448 Кбит/сек, 48,0 КГц



Title: F
Size: 4.21 Gb ( 4 415 504 KBytes ) - DVD-5
Enabled regions: 1, 2, 3, 4, 5, 6, 7, 8

VTS_01 :
Play Length: 00:00:07
Video: PAL 4:3 (720x576) VBR

VTS_02 :
Play Length: 01:47:14
Video: PAL 16:9 (720x576) VBR, Auto Letterboxed
Audio:
Russian (Dolby AC3, 6 ch)

Menu Video:
PAL 16:9 (720x576) VBR
Auto Pan&Scan, Auto Letterboxed
Menu Subtitles:
Not specified
Menu English Language Unit :
Root Menu
Общее
Полное имя : E:\Новинки 2011\Nebesnyj.forsazh.2009.DVD5\VIDEO_TS\VTS_02_1.VOB
Формат : MPEG-PS
Размер файла : 1024 Мбайт
Продолжительность : 25 м.
Общий поток : 5554 Кбит/сек

Видео
Идентификатор : 224 (0xE0)
Формат : MPEG Video
Версия формата : Version 2
Профиль формата : Main@Main
Параметр BVOP формата : Да
Параметр матрицы формата : По умолчанию
Продолжительность : 25 м.
Вид битрейта : Переменный
Битрейт : 4995 Кбит/сек
Номинальный битрейт : 8000 Кбит/сек
Ширина : 720 пикс.
Высота : 576 пикс.
Соотношение сторон : 16:9
Частота кадров : 25,000 кадр/сек
Стандарт вещания : PAL
Цветовое пространство : YUV
Подвыборка цветности : 4:2:0
Битовая глубина : 8 бит
Тип развёртки : Прогрессивная
Метод сжатия : С потерями
Бит/(Пиксели*Кадры) : 0.482
Размер потока : 921 Мбайт (90%)

Аудио
Идентификатор : 189 (0xBD)-128 (0x80)
Формат : AC-3
Формат/Информация : Audio Coding 3
Расширение режима : CM (complete main)
Режим смешивания : DVD-Video
Продолжительность : 25 м.
Вид битрейта : Постоянный
Битрейт : 448 Кбит/сек
Канал(ы) : 6 канала(ов)
Расположение каналов : Front: L C R, Side: L R, LFE
Частота : 48,0 КГц
Битовая глубина : 16 бит
Метод сжатия : С потерями
Размер потока : 82,6 Мбайт (8%)










pb.wtf



Скачать Небесный форсаж через торрент http://i19.fastpic.ru/big/2011/0403/5e/e58aa996fc057c1f91370f75e672f35e.jpg Скачать фильм Небесный форсаж через торрент бесплантно в хорошем качестве Описание: Адреналин, скорость и легкие деньги, вот что любит Джон Стрейгер. На быстрых спортивных самолетах Стрейгер с друзьями перевозит ... 4.1 10 7
Info! Золотая раздача, скачанное не засчитывается.
Торрент: Зарегистрирован [2011-04-03 17:51] · скачан: 66 раз
Статус: √ проверено
Размер: 4.21 GB
Как cкачать? Как скачать Небесный форсаж через торрент | UTorrent

28-11-2019 20:33  

Отключить всю рекламу на сайте

    Дорогой пользователь! Огромная просьба, поблагодарите релизера, оцените раздачу и оставьте свои комментарий, если Вы скачали Небесный форсаж через торрент бесплатно! Внесите свою лепту в развитие PiratBit!
    Комментировать посты могут только пользователи прошедшие не сложную регистрацию
    Показать сообщения:    

    Небесный форсаж через торрент
    Скачать бесплатно Небесный форсаж
    Небесный форсаж скачать торрент
    Небесный форсаж смотреть онлайн
    Cкачать фильм Небесный форсаж бесплатно
    Небесный форсаж скачать торрент в хорошем качестве
    Небесный форсаж смотреть онлайн бесплатно в хорошем качестве


    Вы не можете начинать темы
    Вы не можете отвечать на сообщения
    Вы не можете редактировать свои сообщения
    Вы не можете удалять свои сообщения
    Вы не можете голосовать в опросах
    Вы не можете прикреплять файлы к сообщениям
    Вы можете скачивать файлы