Ссылка на приватное зеркало нашего сайта всего за 1$. Внимание количество ограничено!!!

2 сезон

iTunes

1 сезон

1

iTunes

iTunes

iTunes

1 сезон

RePack

30

ИГРА 18+

pack

ВАЖНО

!!Акция!!

Alien_RageХит недели

RePack

MK11
pack

Забери бонус

RePack

jed

!!Акция!!

Alien_Rage

RePack

fifa19

RePack

Assassins Creed: Odyssey

RePack

NEED FOR SPEED™ PAYBACK

4 сезон

9 сезон

Бесстыжие 9 сезон

Все сериалы

все сериалы на PB.wtf

RePack

FAR CRY 5
  

Тайное окно / Secret Window (Дэвид Кепп / David Koepp) [2004г., триллер, детектив, BDRip 1080p] pb.wtf

Тайное окно через торрент pb.wtf

Размер: 8.96 GB | Добавлен: 9 лет 6 мес. назад | Торрент скачан:297 раз
Скачать  

05-04-2011 15:54 Тайное окно Скачать торрент  

Тайное окно / Secret Window«Some windows should never be opened.»
Год выпуска: 2004
Страна: США
Жанр: триллер, детектив
Продолжительность: 1:35:56

  • Перевод:
  • Профессиональный (Дубляж);
  • Профессиональный (многоголосый закадровый);
  • Авторский (одноголосый закадровый) (Евгений Рудой);
  • Профессиональный (многоголосый закадровый);
  • Оригинальная аудиодорожка: Английская
  • Русские субтитры: есть

Режиссер: Дэвид Кепп / David Koepp
В ролях: Джонни Депп, Джон Туртурро, Мария Белло, Тимоти Хаттон, Чарльз С. Даттон, Лен Кариу, Джоан Хини, Джон Данн-Хилл, Власта Врана, Мэтт Холлэнд, Джиллиан Ферраби, Бронуэн Мэнтел, Элизабет Марло, Ричард Джутрас, Кевин Вудхаус, Вито ДеФилиппо, Сара Аллен, Изабелль Чампу
Описание: Фильм представляет собой экранизацию романа самого известного автора триллеров — Стивена Кинга. На этот раз картина повествует о талантливом и успешном писателе Морте Рейни, который переживает не самые лучшие времена в своей жизни. После того как он застал свою жену в постели с другим мужчиной и пережил утомительные формальности развода, Морт решает удалиться от дел, переехать за город и в тишине сельской жизни бороться с творческим кризисом, постигшим его.
И все было хорошо до тех пор, пока однажды ночью в его дом не ворвался незнакомец, обвинивший Морта в плагиате. Джон Шутер был слишком похож на психопата, а его пистолет — на настоящий, чтобы Морту пришла в голову идея с ним спорить. И когда писатель попытался убедить собеседника в своей правоте, показав ему рукописи книги, он столкнулся с небольшой проблемой — рукопись бесследно исчезла.


  • Тип релиза: BDRip
  • Контейнер: MKV
  • Видео кодек: MPEG-4 AVC | Аудио кодек: AC3, DTS
  • Видео: MPEG-4 AVC / 10325 kbps / 1920x800 / 23,976 fps / 2,40:1 / High Profile 4.1
  • Аудио 1: Русский: AC3 5.1, 48 kHz, 448 kbps | Профессиональный (дублированный)
  • Аудио 2: Русский: AC3 5.1, 48 kHz, 448 kbps | Профессиональный (многоголосый закадровый)
  • Аудио 3: Русский: AC3 5.1, 48 kHz, 448 kbps | Авторский (одноголосый закадровый) (Евгений Рудой)
  • Аудио 4: Украинский: AC3 2.0, 48 kHz, 192 kbps | Профессиональный (многоголосый закадровый)
  • Аудио 5: Английский: DTS 5.1, 48 KHz, 24 bit, 1536 kbps | Оригинал
  • Формат субтитров: softsub (SRT)


Общее
Уникальный идентификатор : 219071294870714338237287013927362675233 (0xA4CF98BFACA66F9E98422C7252DEC221)
Полное имя : Secret.Window.BDRip.1080p-CHD.mkv
Формат : Matroska
Размер файла : 8,96 Гбайт
Продолжительность : 1 ч. 35 м.
Общий поток : 13,4 Мбит/сек
Дата кодирования : UTC 2011-04-02 02:33:27
Программа кодирования : mkvmerge v4.6.0 ('Still Crazy After All These Years') сборка от Mar 10 2011 02:50:32
Библиотека кодирования : libebml v1.2.0 + libmatroska v1.1.0

Видео
Идентификатор : 1
Формат : AVC
Формат/Информация : Advanced Video Codec
Профиль формата : High@L4.1
Параметр CABAC формата : Да
Параметр ReFrames формата : 5 кадры
Параметры GOP формата : M=2, N=24
Идентификатор кодека : V_MPEG4/ISO/AVC
Продолжительность : 1 ч. 35 м.
Битрейт : 10,3 Мбит/сек
Ширина : 1920 пикс.
Высота : 800 пикс.
Соотношение сторон : 2,40:1
Частота кадров : 23,976 кадр/сек
Цветовое пространство : YUV
Подвыборка цветности : 4:2:0
Битовая глубина : 8 бит
Тип развёртки : Прогрессивная
Бит/(Пиксели*Кадры) : 0.280
Размер потока : 6,74 Гбайт (75%)
Заголовок : Secret.Window.2004.BluRay.1080p.DTS.x264-CHD
Библиотека кодирования : x264 core 104 r1703 cd21d05
Настройки программы : cabac=1 / ref=5 / deblock=1:-3:-3 / analyse=0x3:0x113 / me=umh / subme=10 / psy=1 / psy_rd=1.05:0.10 / mixed_ref=1 / me_range=32 / chroma_me=1 / trellis=2 / 8x8dct=1 / cqm=0 / deadzone=21,11 / fast_pskip=0 / chroma_qp_offset=-2 / threads=12 / sliced_threads=0 / nr=0 / decimate=1 / interlaced=0 / constrained_intra=0 / bframes=5 / b_pyramid=2 / b_adapt=2 / b_bias=0 / direct=3 / weightb=1 / open_gop=0 / weightp=2 / keyint=250 / keyint_min=23 / scenecut=40 / intra_refresh=0 / rc_lookahead=60 / rc=2pass / mbtree=1 / bitrate=10325 / ratetol=2.0 / qcomp=0.70 / qpmin=10 / qpmax=51 / qpstep=4 / cplxblur=20.0 / qblur=0.5 / vbv_maxrate=50000 / vbv_bufsize=50000 / ip_ratio=1.40 / aq=1:1.00 / nal_hrd=none
Язык : English

Аудио #1
Идентификатор : 2
Формат : AC-3
Формат/Информация : Audio Coding 3
Расширение режима : CM (complete main)
Идентификатор кодека : A_AC3
Продолжительность : 1 ч. 35 м.
Вид битрейта : Постоянный
Битрейт : 448 Кбит/сек
Канал(ы) : 6 канала(ов)
Расположение каналов : Front: L C R, Side: L R, LFE
Частота : 48,0 КГц
Битовая глубина : 16 бит
Метод сжатия : С потерями
Размер потока : 307 Мбайт (3%)
Заголовок : Дубляж
Язык : Russian

Аудио #2
Идентификатор : 3
Формат : AC-3
Формат/Информация : Audio Coding 3
Расширение режима : CM (complete main)
Идентификатор кодека : A_AC3
Продолжительность : 1 ч. 35 м.
Вид битрейта : Постоянный
Битрейт : 448 Кбит/сек
Канал(ы) : 6 канала(ов)
Расположение каналов : Front: L C R, Side: L R, LFE
Частота : 48,0 КГц
Битовая глубина : 16 бит
Метод сжатия : С потерями
Размер потока : 307 Мбайт (3%)
Заголовок : Многоголосый (Tycoon)
Язык : Russian

Аудио #3
Идентификатор : 4
Формат : AC-3
Формат/Информация : Audio Coding 3
Расширение режима : CM (complete main)
Идентификатор кодека : A_AC3
Продолжительность : 1 ч. 35 м.
Вид битрейта : Постоянный
Битрейт : 448 Кбит/сек
Канал(ы) : 6 канала(ов)
Расположение каналов : Front: L C R, Side: L R, LFE
Частота : 48,0 КГц
Битовая глубина : 16 бит
Метод сжатия : С потерями
Размер потока : 307 Мбайт (3%)
Заголовок : Авторский (Евгений Рудой)
Язык : Russian

Аудио #4
Идентификатор : 5
Формат : AC-3
Формат/Информация : Audio Coding 3
Расширение режима : CM (complete main)
Идентификатор кодека : A_AC3
Продолжительность : 1 ч. 35 м.
Вид битрейта : Постоянный
Битрейт : 192 Кбит/сек
Канал(ы) : 2 канала(ов)
Расположение каналов : Front: L R
Частота : 48,0 КГц
Битовая глубина : 16 бит
Метод сжатия : С потерями
Размер потока : 132 Мбайт (1%)
Заголовок : Многоголосый
Язык : Ukrainian

Аудио #5
Идентификатор : 6
Формат : DTS
Формат/Информация : Digital Theater Systems
Идентификатор кодека : A_DTS
Продолжительность : 1 ч. 35 м.
Вид битрейта : Постоянный
Битрейт : 1510 Кбит/сек
Канал(ы) : 6 канала(ов)
Расположение каналов : Front: L C R, Side: L R, LFE
Частота : 48,0 КГц
Битовая глубина : 24 бит
Метод сжатия : С потерями
Размер потока : 1,01 Гбайт (11%)
Язык : English

Текст #1
Идентификатор : 7
Формат : UTF-8
Идентификатор кодека : S_TEXT/UTF8
Идентификатор кодека/Информация : UTF-8 Plain Text
Заголовок : Russian
Язык : Russian

Текст #2
Идентификатор : 8
Формат : UTF-8
Идентификатор кодека : S_TEXT/UTF8
Идентификатор кодека/Информация : UTF-8 Plain Text
Заголовок : English
Язык : English

pb.wtf



Скачать Тайное окно через торрент http://lostpic.net/images/dc37a12b9db5ab23237948031f30a1c3.jpg Скачать фильм Тайное окно через торрент бесплантно в хорошем качестве Описание: Фильм представляет собой экранизацию романа самого известного автора триллеров — Стивена Кинга. На этот раз картина повествует о ... 10 10 5
Info! Золотая раздача, скачанное не засчитывается.
Торрент: Зарегистрирован [2011-04-05 15:54] · скачан: 297 раз
Статус: √ проверено
Размер: 8.96 GB
Как cкачать? Как скачать Тайное окно через торрент | qTorrent

% Раздел Тема Автор DL S | L
Фильмы 2001-2005 [ 3.01 GB ] Тайное окно / Secret Window [2004 BDRip AVC] DUB 2xMVO AVO Леонид Ильич Скачать
1 | 0
Фильмы 2001-2005 [ 1.46 GB ] Тайное окно / Secret Window [2004 HDRip by Dean24] Dean24 Скачать
1 | 0
Фильмы 2001-2005 [ 1.45 GB ] Тайное Окно / Secret Window [2004 BDRip] Trust Скачать
1 | 0
Фильмы 2001-2005 [ 1.46 GB ] Тайное окно / Secret Window [2004 ... BDRip] sasha060 Скачать
1 | 0

28-11-2019 20:33  

Отключить всю рекламу на сайте

05-04-2011 18:44 Тайное окно Скачать торрент  

Джонни Депп?В детективе?Это новое))pb.wtf



    Дорогой пользователь! Огромная просьба, поблагодарите релизера, оцените раздачу и оставьте свои комментарий, если Вы скачали Тайное окно через торрент бесплатно! Внесите свою лепту в развитие PiratBit!
    Комментировать посты могут только пользователи прошедшие не сложную регистрацию
    Показать сообщения:    

    Тайное окно через торрент
    Скачать бесплатно Тайное окно
    Тайное окно скачать торрент
    Тайное окно смотреть онлайн
    Cкачать фильм Тайное окно бесплатно
    Тайное окно скачать торрент в хорошем качестве
    Тайное окно смотреть онлайн бесплатно в хорошем качестве


    Вы не можете начинать темы
    Вы не можете отвечать на сообщения
    Вы не можете редактировать свои сообщения
    Вы не можете удалять свои сообщения
    Вы не можете голосовать в опросах
    Вы не можете прикреплять файлы к сообщениям
    Вы можете скачивать файлы