1 сезон

3 сезон

iTunes

1

iTunes

MVO

iTunes

13

1 сезон

RePack

30

Deluxe

pack

Лицензия

ВАЖНО

ИГРА 18+

pack

RePack

MK11

RePack

jed

RePack

fifa19

RePack

RDR2

RePack

NEED FOR SPEED™ PAYBACK

4 сезон

9 сезон

Бесстыжие 9 сезон

Все сериалы

все сериалы на PB.wtf

RePack

FAR CRY 5

Anonymous, доброе утро, мы катастрофически не успеваем собрать деньги на оплату серверов, помогите нам пожалуйста 5,10,15р., для нас важна любая помощь . В качестве благодарности мы отключим Вам всю рекламу на сайте (укажите свой ник в строку Ваше имя)!

×
  
Magnet ссылка

Путь воина / The Warrior's Way (Снгму Ли / Sngmoo Lee) [2010, США, Корея Южная, Новая Зеландия, фэнтези, боевик, вестерн, DVD9] R5 «Парадиз Видео» pb.wtf

Путь воина через торрент pb.wtf

Размер: 6.71 GB | Добавлен: 10 лет назад | Торрент скачан:82 раза
Скачать  

06-04-2011 08:57 Путь воина Скачать торрент  


Путь воина / The Warrior's Way
Страна: США, Корея Южная, Новая Зеландия
Студия: Culture Unplugged Studios, Fuse Media, Sad Flutes
Жанр: фэнтези, боевик, вестерн
Год выпуска: 2010
Мировая премьера: 1 декабря 2010
Российская премьера: 2 декабря 2010, «Парадиз»
Дата выхода DVD: 7 апреля 2011, «Парадиз Видео»
Дата выхода Blu-Ray: 12 мая 2011, «Парадиз Видео»
Продолжительность: 01:36:05
Перевод: Профессиональный (дублированный) [Лицензия]
Cубтитры: русские
Оригинальная аудиодорожка: английский
Режиссер: Снгму Ли / Sngmoo Lee
В ролях: Чан Дон Ган, Кейт Босворт, Джеффри Раш, Дэнни Хьюстон, Мэтт Джилландерс, Тони Кокс, Ланг Ти, Эналин Радд, Маркус Хэмилтон, Род Люисих
Описание: Великий воин Янг — живая легенда, рожденная на поле боя. Он был так силен, что ни одна армия не могла его победить.
Однажды, уничтожая врагов своего клана, самурай отказался убить маленькую девочку, за что его ждет смертный приговор. С младенцем на руках он бежит в Новый Свет, в Америку и находит убежище в захолустном городке, жители которого живут в постоянном страхе перед бандой безжалостного Полковника… Но и здесь прошлое преследует Янга. Он снова должен обнажить свой меч…

Бонусы: Смотрите на DVD

Качество: DVD9 R5
Формат: DVD-Video
Видео кодек: MPEG2
Аудио кодек: AC3
Видео: PAL 16:9 (720x576(0.769)) MPEG Video,25,000 кадр/сек, 7971 Кбит/сек
Аудио #1: Russian (Dolby AC3, 6 ch) 384 Кбит/сек, 48,0 КГц
Аудио #2: English (Dolby AC3, 6 ch) 384 Кбит/сек, 48,0 КГц
Аудио #3: Russian (Dolby AC3, 2 ch) 192 Кбит/сек, 48,0 КГц



Title: F
Size: 6.71 Gb ( 7 033 474 KBytes ) - DVD-9
Enabled regions: 1, 2, 3, 4, 5, 6, 7, 8

VTS_01 :
Play Length: 01:36:05
Video: PAL 16:9 (720x576) VBR, Auto Letterboxed
Audio:
Russian (Dolby AC3, 6 ch)
Russian (Dolby AC3, 2 ch)
English (Dolby AC3, 6 ch)
Subtitles:
Russian

VTS_02 :
Play Length: 00:00:11
Video: PAL 16:9 (720x576) VBR, Auto Letterboxed
Audio:
Russian (Dolby AC3, 2 ch)

VTS_03 :
Play Length: 00:00:17
Video: PAL 4:3 (720x576) VBR
Audio:
Russian (Dolby AC3, 2 ch)

VTS_04 :
Play Length: 00:03:36
Video: PAL 4:3 (720x576) VBR
Audio:
Russian (Dolby AC3, 2 ch)

VTS_05 :
Play Length: 00:03:48
Video: PAL 16:9 (720x576) VBR, Auto Letterboxed
Audio:
Russian (Dolby AC3, 2 ch)
Общее
Полное имя : E:\Новинки 2011\Put.voina.2010.DVD-9\VIDEO_TS\VTS_01_1.VOB
Формат : MPEG-PS
Размер файла : 1024 Мбайт
Продолжительность : 15 м.
Общий поток : 9113 Кбит/сек
Библиотека кодирования : encoded by TMPGEnc (ver. 2.524.63.181)

Видео
Идентификатор : 224 (0xE0)
Формат : MPEG Video
Версия формата : Version 2
Профиль формата : Main@Main
Параметр BVOP формата : Да
Параметр матрицы формата : По умолчанию
Продолжительность : 15 м.
Вид битрейта : Постоянный
Битрейт : 7971 Кбит/сек
Ширина : 720 пикс.
Высота : 576 пикс.
Соотношение сторон : 16:9
Частота кадров : 25,000 кадр/сек
Стандарт вещания : PAL
Цветовое пространство : YUV
Подвыборка цветности : 4:2:0
Битовая глубина : 8 бит
Метод сжатия : С потерями
Бит/(Пиксели*Кадры) : 0.769
Размер потока : 896 Мбайт (87%)
Библиотека кодирования : TMPGEnc 2.524.63.181

Аудио #1
Идентификатор : 189 (0xBD)-128 (0x80)
Формат : AC-3
Формат/Информация : Audio Coding 3
Расширение режима : CM (complete main)
Режим смешивания : DVD-Video
Продолжительность : 15 м.
Вид битрейта : Постоянный
Битрейт : 384 Кбит/сек
Канал(ы) : 6 канала(ов)
Расположение каналов : Front: L C R, Side: L R, LFE
Частота : 48,0 КГц
Битовая глубина : 16 бит
Метод сжатия : С потерями
Задержка видео : 6 мс.
Размер потока : 43,1 Мбайт (4%)

Аудио #2
Идентификатор : 189 (0xBD)-129 (0x81)
Формат : AC-3
Формат/Информация : Audio Coding 3
Расширение режима : CM (complete main)
Режим смешивания : DVD-Video
Продолжительность : 15 м.
Вид битрейта : Постоянный
Битрейт : 192 Кбит/сек
Канал(ы) : 2 канала(ов)
Расположение каналов : Front: L R
Частота : 48,0 КГц
Битовая глубина : 16 бит
Метод сжатия : С потерями
Задержка видео : 6 мс.
Размер потока : 21,6 Мбайт (2%)

Аудио #3
Идентификатор : 189 (0xBD)-130 (0x82)
Формат : AC-3
Формат/Информация : Audio Coding 3
Расширение режима : CM (complete main)
Режим смешивания : DVD-Video
Продолжительность : 15 м.
Вид битрейта : Постоянный
Битрейт : 384 Кбит/сек
Канал(ы) : 6 канала(ов)
Расположение каналов : Front: L C R, Side: L R, LFE
Частота : 48,0 КГц
Битовая глубина : 16 бит
Метод сжатия : С потерями
Задержка видео : 6 мс.
Размер потока : 43,1 Мбайт (4%)




pb.wtf



Скачать Путь воина через торрент http://i19.fastpic.ru/big/2011/0406/c7/91c623417f45b732182b7ddb162ca6c7.png Скачать фильм Путь воина через торрент бесплантно в хорошем качестве Описание: Великий воин Янг — живая легенда, рожденная на поле боя. Он был так силен, что ни одна армия не могла его победить.Однажды, ... 4.8 10 8
Info! Золотая раздача, скачанное не засчитывается.
Торрент: Зарегистрирован [2011-04-06 08:57] · скачан: 82 раз
Статус: √ проверено
Размер: 6.71 GB
Как cкачать? Как скачать Путь воина через торрент | UTorrent

28-11-2019 20:33  

Отключить всю рекламу на сайте

    Дорогой пользователь! Огромная просьба, поблагодарите релизера, оцените раздачу и оставьте свои комментарий, если Вы скачали Путь воина через торрент бесплатно! Внесите свою лепту в развитие PiratBit!
    Комментировать посты могут только пользователи прошедшие не сложную регистрацию
    Показать сообщения:    

    Путь воина через торрент
    Скачать бесплатно Путь воина
    Путь воина скачать торрент
    Путь воина смотреть онлайн
    Cкачать фильм Путь воина бесплатно
    Путь воина скачать торрент в хорошем качестве
    Путь воина смотреть онлайн бесплатно в хорошем качестве


    Вы не можете начинать темы
    Вы не можете отвечать на сообщения
    Вы не можете редактировать свои сообщения
    Вы не можете удалять свои сообщения
    Вы не можете голосовать в опросах
    Вы не можете прикреплять файлы к сообщениям
    Вы можете скачивать файлы