Ссылка на приватное зеркало нашего сайта всего за 1$. Внимание количество ограничено!!!

2 сезон

iTunes

1 сезон

1

iTunes

iTunes

iTunes

1 сезон

RePack

30

ИГРА 18+

pack

ВАЖНО

!!Акция!!

Alien_RageХит недели

RePack

MK11
pack

Забери бонус

RePack

jed

!!Акция!!

Alien_Rage

RePack

fifa19

RePack

Assassins Creed: Odyssey

RePack

NEED FOR SPEED™ PAYBACK

4 сезон

9 сезон

Бесстыжие 9 сезон

Все сериалы

все сериалы на PB.wtf

RePack

FAR CRY 5
  

Путь воина / The Warrior's Way (Снгму Ли / Sngmoo Lee) [2010, США, Корея Южная, Новая Зеландия, фэнтези, боевик, вестерн, BDRip-AVC 720p] pb.wtf

Путь воина через торрент pb.wtf

Размер: 4.64 GB | Добавлен: 9 лет 6 мес. назад | Торрент скачан:398 раз
Скачать  

06-04-2011 23:02 Путь воина Скачать торрент  


Путь воина / The Warrior's Way
Год выпуска: 2010
Мировая премьера: 1 декабря 2010
Российская премьера: 2 декабря 2010
Производство: США, Корея Южная, Новая Зеландия
Жанр: фэнтези, боевик, вестерн
Продолжительность: 01:40:15
Перевод: Профессиональный (полное дублирование) [Лицензия]
Оригинальный аудиопоток: Английский
Режиссер: Снгму Ли / Sngmoo Lee
В ролях: Чан Дон Ган, Кейт Босворт, Джеффри Раш, Дэнни Хьюстон, Мэтт Джилландерс, Тони Кокс, Ланг Ти, Эналин Радд, Маркус Хэмилтон, Род Люисих ...
Описание: Великий воин Янг — живая легенда, рожденная на поле боя. Он был так силен, что ни одна армия не могла его победить.
Однажды, уничтожая врагов своего клана, самурай отказался убить маленькую девочку, за что его ждет смертный приговор. С младенцем на руках он бежит в Новый Свет, в Америку и находит убежище в захолустном городке, жители которого живут в постоянном страхе перед бандой безжалостного Полковника… Но и здесь прошлое преследует Янга. Он снова должен обнажить свой меч…


Качество: BDRip-AVC 720p
Формат: MKV
Видео кодек: H.264
Аудио кодек: AC3
Видео:1280x536 (2,35:1), 23,976 fps, Н.264, 4733 kbps avg, 0.288 bit/pixel
Аудио #1: Русский - 48 KHz, AC3 Dolby Digital, 6 ch, 384 kb/s - [Профессиональный (полное дублирование)]
Аудио #2: Английский - 48 KHz, DTS, 6 ch, 1510 kb/s [Оригинал]
Субтитры: Английские



Формат : Matroska
Размер файла : 4,64 Гбайт
Продолжительность : 1 ч. 40 м.
Общий поток : 6629 Кбит/сек
Дата кодирования : UTC 2011-04-06 10:17:11
Программа кодирования : mkvmerge v4.5.0 ('Speed of Light') сборка от Feb 1 2011 02:10:32
Библиотека кодирования : libebml v1.2.0 + libmatroska v1.1.0

Видео
Идентификатор : 1
Формат : AVC
Формат/Информация : Advanced Video Codec
Профиль формата : High@L4.1
Параметр CABAC формата : Да
Параметр ReFrames формата : 5 кадры
Параметры GOP формата : M=3, N=46
Идентификатор кодека : V_MPEG4/ISO/AVC
Продолжительность : 1 ч. 40 м.
Битрейт : 4733 Кбит/сек
Ширина : 1280 пикс.
Высота : 536 пикс.
Соотношение сторон : 2,35:1
Частота кадров : 23,976 кадр/сек
Цветовое пространство : YUV
Подвыборка цветности : 4:2:0
Битовая глубина : 8 бит
Тип развёртки : Прогрессивная
Бит/(Пиксели*Кадры) : 0.288
Размер потока : 3,22 Гбайт (69%)
Библиотека кодирования : x264 core 114 r1924 08d04a4
Настройки программы : cabac=1 / ref=5 / deblock=1:0:0 / analyse=0x3:0x113 / me=umh / subme=8 / psy=1 / psy_rd=1.00:0.00 / mixed_ref=1 / me_range=16 / chroma_me=1 / trellis=1 / 8x8dct=1 / cqm=0 / deadzone=21,11 / fast_pskip=1 / chroma_qp_offset=-2 / threads=12 / sliced_threads=0 / nr=0 / decimate=1 / interlaced=0 / constrained_intra=0 / bframes=3 / b_pyramid=2 / b_adapt=2 / b_bias=0 / direct=3 / weightb=1 / open_gop=0 / weightp=2 / keyint=240 / keyint_min=24 / scenecut=40 / intra_refresh=0 / rc_lookahead=50 / rc=2pass / mbtree=1 / bitrate=4733 / ratetol=1.0 / qcomp=0.60 / qpmin=0 / qpmax=69 / qpstep=4 / cplxblur=20.0 / qblur=0.5 / ip_ratio=1.40 / aq=1:1.00
Язык : English

Аудио #1
Идентификатор : 2
Формат : AC-3
Формат/Информация : Audio Coding 3
Расширение режима : CM (complete main)
Идентификатор кодека : A_AC3
Продолжительность : 1 ч. 40 м.
Вид битрейта : Постоянный
Битрейт : 384 Кбит/сек
Канал(ы) : 6 канала(ов)
Расположение каналов : Front: L C R, Side: L R, LFE
Частота : 48,0 КГц
Битовая глубина : 16 бит
Метод сжатия : С потерями
Размер потока : 275 Мбайт (6%)
Язык : Russian

Аудио #2
Идентификатор : 3
Формат : DTS
Формат/Информация : Digital Theater Systems
Идентификатор кодека : A_DTS
Продолжительность : 1 ч. 40 м.
Вид битрейта : Постоянный
Битрейт : 1510 Кбит/сек
Канал(ы) : 6 канала(ов)
Расположение каналов : Front: L C R, Side: L R, LFE
Частота : 48,0 КГц
Битовая глубина : 24 бит
Метод сжатия : С потерями
Задержка видео : 22 мс.
Размер потока : 1,06 Гбайт (23%)
Язык : English

Текст
Идентификатор : 4
Формат : UTF-8
Идентификатор кодека : S_TEXT/UTF8
Идентификатор кодека/Информация : UTF-8 Plain Text
Язык : English










pb.wtf



Скачать Путь воина через торрент http://i19.fastpic.ru/big/2011/0406/a3/1fb2a3841a06cecb12e98013f2cdaca3.png Скачать фильм Путь воина через торрент бесплантно в хорошем качестве Описание: Великий воин Янг — живая легенда, рожденная на поле боя. Он был так силен, что ни одна армия не могла его победить.Однажды, ... 10 10 1
Info! Золотая раздача, скачанное не засчитывается.
Торрент: Зарегистрирован [2011-04-06 23:02] · скачан: 398 раз
Статус: √ проверено
Размер: 4.64 GB
Как cкачать? Как скачать Путь воина через торрент | qTorrent

28-11-2019 20:33  

Отключить всю рекламу на сайте

06-04-2011 23:23 Путь воина Скачать торрент  

Спасибо , посмотрим.!pb.wtf



07-04-2011 05:44 Путь воина Скачать торрент  

Думаю понравится, :ad: ,Спасибо за релиз! pb.wtf



28-05-2011 18:41 Путь воина Скачать торрент  

АААФИГИТЕЛЬНАЯ сказка для тех, кому за 13))) Замечательное кино, получил огромное удовольствие. И ещё не раз пересмотрю. Эффектно, романтично, увлекательно, с очень занятными поворотами сюжета - ну, как положено)) Здорово снято, очень красивая картинка, обаятельные персонажи, и только жаль, что их так много поубивали по дороге.... а кроме того, есть риск, что больше мы их никогда не увидим...

Но фильм более чем достойный своего жанра, и даже с некоторыми новинками - поженить азиатскую сказку с вестерном, это редкой силы задача) В моей фильмотеке встаёт в ряд с "Повелителем стихий" и "Воображариумом доктора Парнассуса".

Раздача ОЧЕНЬ ДОСТОЙНАЯ фильма, автору - низкий поклон.... всегда бы так)pb.wtf



14-10-2011 17:17 Путь воина Скачать торрент  

Дайте скорости,ПОЖАЛУЙСТА!!!!pb.wtf



27-09-2012 22:04 Путь воина Скачать торрент  

Скорости плиииииз))))pb.wtf



    Дорогой пользователь! Огромная просьба, поблагодарите релизера, оцените раздачу и оставьте свои комментарий, если Вы скачали Путь воина через торрент бесплатно! Внесите свою лепту в развитие PiratBit!
    Комментировать посты могут только пользователи прошедшие не сложную регистрацию
    Показать сообщения:    

    Путь воина через торрент
    Скачать бесплатно Путь воина
    Путь воина скачать торрент
    Путь воина смотреть онлайн
    Cкачать фильм Путь воина бесплатно
    Путь воина скачать торрент в хорошем качестве
    Путь воина смотреть онлайн бесплатно в хорошем качестве


    Вы не можете начинать темы
    Вы не можете отвечать на сообщения
    Вы не можете редактировать свои сообщения
    Вы не можете удалять свои сообщения
    Вы не можете голосовать в опросах
    Вы не можете прикреплять файлы к сообщениям
    Вы можете скачивать файлы