1 сезон

3 сезон

iTunes

1

iTunes

MVO

iTunes

13

1 сезон

RePack

30

Deluxe

pack

Лицензия

ВАЖНО

ИГРА 18+

pack

RePack

MK11

RePack

jed

RePack

fifa19

RePack

RDR2

RePack

NEED FOR SPEED™ PAYBACK

4 сезон

9 сезон

Бесстыжие 9 сезон

Все сериалы

все сериалы на PB.wtf

RePack

FAR CRY 5

Anonymous, доброй ночи, мы катастрофически не успеваем собрать деньги на оплату серверов, помогите нам пожалуйста 5,10,15р., для нас важна любая помощь . В качестве благодарности мы отключим Вам всю рекламу на сайте (укажите свой ник в строку Ваше имя)!

×
  
Magnet ссылка

Сделай шаг / Make It Happen (Даррен Грант / Darren Grant) [2008, США, драма, DVD5] R5 «West Video» pb.wtf

Сделай шаг через торрент pb.wtf

Размер: 4.3 GB | Добавлен: 10 лет назад | Торрент скачан:7 раз
Скачать  

08-04-2011 19:53 Сделай шаг Скачать торрент  


Сделай шаг / Make It Happen
«У каждого есть мечта...»
Страна: США
Студия: Mayhem Project, The
Жанр: драма
Год выпуска: 2008
Мировая премьера: 8 августа 2008
Российская премьера: 16 апреля 2009, «West»
Дата выхода DVD: 5 апреля 2011, «West Video»
Продолжительность: 01:26:20
Перевод: Профессиональный (дублированный) [Лицензия]
Cубтитры: русские, украинские
Оригинальная аудиодорожка: английский
Режиссер: Даррен Грант / Darren Grant
В ролях: Мэри Элизабет Уинстэд, Тесса Томпсон, Райли Смит, Джон Генри Рирдон, Юлисса Бермудез, Эшли Робертс, Карен ЛеБланк, Мэтт Киппен, Эрик Фйелдстед, Аарон Мерке
Описание: Лорин, молодая девушка из Индианы, отправлялась в Чикаго с мечтой поступить в Чикагскую Школу Музыки и Танца. Но после неудачи на вступительном конкурсе она вынуждена работать в бурлеск-клубе. Который оказывается местом, позволяющим Лорин понять: планы могут измениться, а мечты — никогда.
Бонусы: Анонсы, трейлер

Качество: DVD5 R5
Формат: DVD-Video
Видео кодек: MPEG2
Аудио кодек: AC3
Видео: PAL 16:9 (720x576(0.445)) MPEG Video,25,000 кадр/сек, 4618 Кбит/сек
Аудио: English / Russian (Dolby AC3, 6 ch) 384 Кбит/сек, 48,0 КГц



Title: F
Size: 4.30 Gb ( 4 512 917 KBytes ) - DVD-5
Enabled regions: 1, 2, 3, 4, 5, 6, 7, 8

VTS_01 :
Play Length: 00:00:23
Video: PAL 4:3 (720x576) VBR

VTS_02 :
Play Length: 00:00:31
Video: PAL 4:3 (720x576) VBR
Audio:
English (Dolby AC3, 6 ch)

VTS_03 :
Play Length: 00:02:02
Video: PAL 16:9 (720x576) VBR, Auto Pan&Scan
Audio:
Russian (Dolby AC3, 6 ch)
Russian (Dolby AC3, 6 ch)

VTS_04 :
Play Length: 00:01:43
Video: PAL 4:3 (720x576) VBR
Audio:
Russian (Dolby AC3, 2 ch)
Russian (Dolby AC3, 2 ch)

VTS_05 :
Play Length: 00:02:33
Video: PAL 16:9 (720x576) VBR, Auto Pan&Scan
Audio:
Russian (Dolby AC3, 2 ch)
Russian (Dolby AC3, 2 ch)

VTS_06 :
Play Length: 00:01:35
Video: PAL 16:9 (720x576) VBR, Auto Pan&Scan
Audio:
Russian (Dolby AC3, 2 ch)
Russian (Dolby AC3, 2 ch)

VTS_07 :
Play Length: 00:01:39
Video: PAL 16:9 (720x576) VBR, Auto Pan&Scan
Audio:
Russian (Dolby AC3, 2 ch)
Russian (Dolby AC3, 2 ch)

VTS_08 :
Play Length: 00:01:54
Video: PAL 16:9 (720x576) VBR, Auto Pan&Scan
Audio:
Russian (Dolby AC3, 2 ch)
English (Dolby AC3, 2 ch)

VTS_09 :
Play Length: 01:26:20
Video: PAL 16:9 (720x576) VBR, Auto Pan&Scan, Auto Letterboxed
Audio:
Russian (Dolby AC3, 6 ch)
English (Dolby AC3, 6 ch)
Subtitles:
Russian
Ukrainian
Общее
Полное имя : E:\Новинки 2011\Sdelay.shag.2008.DVD5\VIDEO_TS\VTS_09_2.VOB
Формат : MPEG-PS
Размер файла : 1024 Мбайт
Продолжительность : 26 м.
Общий поток : 5495 Кбит/сек

Видео
Идентификатор : 224 (0xE0)
Формат : MPEG Video
Версия формата : Version 2
Профиль формата : Main@Main
Параметр BVOP формата : Да
Параметр матрицы формата : По умолчанию
Параметры GOP формата : M=3, N=15
Продолжительность : 26 м.
Вид битрейта : Переменный
Битрейт : 4618 Кбит/сек
Номинальный битрейт : 8700 Кбит/сек
Ширина : 720 пикс.
Высота : 576 пикс.
Соотношение сторон : 16:9
Частота кадров : 25,000 кадр/сек
Стандарт вещания : PAL
Цветовое пространство : YUV
Подвыборка цветности : 4:2:0
Битовая глубина : 8 бит
Тип развёртки : Чересстрочная
Порядок развёртки : Верхнее поле первое
Метод сжатия : С потерями
Бит/(Пиксели*Кадры) : 0.445
Размер потока : 860 Мбайт (84%)

Аудио #1
Идентификатор : 189 (0xBD)-128 (0x80)
Формат : AC-3
Формат/Информация : Audio Coding 3
Расширение режима : CM (complete main)
Режим смешивания : DVD-Video
Продолжительность : 26 м.
Вид битрейта : Постоянный
Битрейт : 384 Кбит/сек
Канал(ы) : 6 канала(ов)
Расположение каналов : Front: L C R, Side: L R, LFE
Частота : 48,0 КГц
Битовая глубина : 16 бит
Метод сжатия : С потерями
Задержка видео : -592 мс.
Размер потока : 71,5 Мбайт (7%)

Аудио #2
Идентификатор : 189 (0xBD)-129 (0x81)
Формат : AC-3
Формат/Информация : Audio Coding 3
Расширение режима : CM (complete main)
Режим смешивания : DVD-Video
Продолжительность : 26 м.
Вид битрейта : Постоянный
Битрейт : 384 Кбит/сек
Канал(ы) : 6 канала(ов)
Расположение каналов : Front: L C R, Side: L R, LFE
Частота : 48,0 КГц
Битовая глубина : 16 бит
Метод сжатия : С потерями
Задержка видео : -592 мс.
Размер потока : 71,5 Мбайт (7%)










pb.wtf



Скачать Сделай шаг через торрент http://i19.fastpic.ru/big/2011/0408/6f/82c1ae8ef662bb3ed706f2e890e9486f.jpg Скачать фильм Сделай шаг через торрент бесплантно в хорошем качестве Описание: Лорин, молодая девушка из Индианы, отправлялась в Чикаго с мечтой поступить в Чикагскую Школу Музыки и Танца. Но после неудачи на ... 5 10 1
Info! Золотая раздача, скачанное не засчитывается.
Торрент: Зарегистрирован [2011-04-08 19:53] · скачан: 7 раз
Статус: √ проверено
Размер: 4.3 GB
Как cкачать? Как скачать Сделай шаг через торрент | UTorrent

28-11-2019 20:33  

Отключить всю рекламу на сайте

    Дорогой пользователь! Огромная просьба, поблагодарите релизера, оцените раздачу и оставьте свои комментарий, если Вы скачали Сделай шаг через торрент бесплатно! Внесите свою лепту в развитие PiratBit!
    Комментировать посты могут только пользователи прошедшие не сложную регистрацию
    Показать сообщения:    

    Сделай шаг через торрент
    Скачать бесплатно Сделай шаг
    Сделай шаг скачать торрент
    Сделай шаг смотреть онлайн
    Cкачать фильм Сделай шаг бесплатно
    Сделай шаг скачать торрент в хорошем качестве
    Сделай шаг смотреть онлайн бесплатно в хорошем качестве


    Вы не можете начинать темы
    Вы не можете отвечать на сообщения
    Вы не можете редактировать свои сообщения
    Вы не можете удалять свои сообщения
    Вы не можете голосовать в опросах
    Вы не можете прикреплять файлы к сообщениям
    Вы можете скачивать файлы